Скачать через торрент музыку Theodore Ziras - Hyperpyrexia - 2007, FLAC бесплатно без регистрации torrent

Если у вас наблюдаются проблемы со скриншотами, переходом по ссылками, скачиванием торрентов - проблемы в блокировщике рекламы AdBlock. #хорошегоДня!


Статистика раздачи
Размер:  334 MB   |    Зарегистрирован:  4 года 7 месяцев   |    .torrent скачан:  15 раз   |   
Раздают:  1  
   
Загрузка...
 
Автор Сообщение

Galfimbul

avatar Galfimbul


Theodore Ziras / Hyperpyrexia

Жанр: Neoclassical/Power Metal
Страна-производитель диска: Greece
Год издания: 2007
Издатель (лейбл): Sleaszy Rider Records
Номер по каталогу: SR-0068
Страна: Greece
Аудиокодек: FLAC (*.flac)
Тип рипа: image+.cue
Битрейт аудио: lossless
Продолжительность: 40:53
Источник (релизер): shen ( MMT ) - спасибо
Наличие сканов в содержимом раздачи: да
Треклист:
1. Child of Scotland 04:10
2. Such and Such 03:33
3. Rapid Eye Movement 02:52Rapid Eye Movement
4. Solitude 05:21
5. Seven Churches 04:10
6. Salvation 03:34
7. Number One 03:40
8. Night of the Dead 05:51
9. HypepyrexiA 04:15
10. Go East 03:27
Exact Audio Copy V1.0 beta 1 from 15. November 2010

EAC extraction logfile from 26. December 2012, 11:09

Theodore Ziras / Hyperpyrexia

Used drive : HL-DT-STDVDRAM GT33N Adapter: 0 ID: 1

Read mode : SecureUtilize accurate stream : YesDefeat audio cache : YesMake use of C2 pointers : No

Read offset correction : 103Overread into Lead-In and Lead-Out : NoFill up missing offset samples with silence : YesDelete leading and trailing silent blocks : NoNull samples used in CRC calculations : YesUsed interface : Native Win32 interface for Win NT & 2000

Used output format : Internal WAV RoutinesSample format : 44.100 Hz; 16 Bit; Stereo

TOC of the extracted CD

Track | Start | Length | Start sector | End sector --------------------------------------------------------- 1 | 0:00.00 | 4:10.00 | 0 | 18749 2 | 4:10.00 | 3:33.64 | 18750 | 34788 3 | 7:43.64 | 2:52.45 | 34789 | 47733 4 | 10:36.34 | 5:21.39 | 47734 | 71847 5 | 15:57.73 | 4:10.70 | 71848 | 90667 6 | 20:08.68 | 3:34.38 | 90668 | 106755 7 | 23:43.31 | 3:40.39 | 106756 | 123294 8 | 27:23.70 | 5:51.19 | 123295 | 149638 9 | 33:15.14 | 4:15.63 | 149639 | 168826 10 | 37:31.02 | 3:27.37 | 168827 | 184388

Range status and errors

Selected range

Filename C:\Theodore Ziras - Hyperpyrexia.wav

Peak level 100.0 % Extraction speed 0.1 X Range quality 99.9 % Test CRC 2430AD5F Copy CRC 2430AD5F Copy OK

No errors occurred

AccurateRip summary

Track 1 not present in databaseTrack 2 not present in databaseTrack 3 not present in databaseTrack 4 not present in databaseTrack 5 not present in databaseTrack 6 not present in databaseTrack 7 not present in databaseTrack 8 not present in databaseTrack 9 not present in databaseTrack 10 not present in database

None of the tracks are present in the AccurateRip database

End of status report
Hyperpyrexia, according to medical dictionaries, is defined as an unusually high fever where the body’s core temperature is raised higher than it can handle, resulting in heatstroke. It can be triggered from long exposure to direct sunlight, from side effects of various controlled substances, or by standing too close to your speakers while listening to the Theodore Ziras album of the same name. Easily one of the more exciting instrumental albums of the last few years, “Hyperpyrexia” is a stunning display of composition and chops that is sure to satiate the appetites of even the hungriest guitar enthusiasts.

Admittedly, I was quite skeptical of this album’s worth. Instrumental albums generally suffer from a series of limitations not at all associated with the skill of the musicians involved, such as lack of variety, masturbatory showboating, and expressionless precision, all of which a decent vocalist and a little restraint would go a long way towards rectifying. Armed with these presumptions like a warrior off to battle, I was immediately floored by opening cut “Child Of Scotland.” Talk about putting his best foot forward, this song is the instant highlight of the album. Ziras’ playing is extraordinary: his technique is fluid, harmonious, and incredibly catchy. And he doesn’t sacrifice his incredible speed or heavy guitar tone to accomplish it. I had expected a lizard, but was met with a dragon.

The momentum of the insurmountable first track rides on through the rest of the album, where Theodore Ziras further displays his ability to decimate the listener with his immense brand of progressive, neoclassical guitarwork. He plays both the guitar and the bass, enlisting ex-Dream Theater keyboardist Derek Sherinian for the insane keyboard solos and Brian Tichy for the percussive accompaniment. Tracks like “Such And Such” and “Rapid Eye Movement” dominate the up-tempo territory, but none of the songs could really be considered mellow or atmospheric. The tempo does vary a bit, but don’t expect anything short of instrumental metal on this one.

Only downside is that the back half of the album doesn’t quite stand up to the first half. While songs like “Night Of The Dead” and “Go East” are still potent, “Hyperpyrexia” starts so strong that they seem worlds beneath the first three tracks. Regardless, it’s a killer album from Theodore Ziras; undoubtedly Greece’s most impressive guitar hero.
Theodore Ziras Guitars
Guest/session musicians
Manos Markopoulos Bass
Brian Tichy Drums
Derek Sherinian Keyboards


Трекер:  [ 10-Янв-2013 11:40 ]

  

Скачать .torrent

Размер .torrent файла 14 KB


Размер: 334 MB
Хэш (hash) релиза: 5673cd19adb97bc214da1a4f9528967e83a9625b

Еще никто не оставлял запись к записи скачать торрент Theodore Ziras - Hyperpyrexia - 2007, FLAC . Будь первым!

!Обратная связь