Скачать через торрент музыку The Albion Band - Demi Paradise - 1996 бесплатно без регистрации torrent

Если у вас наблюдаются проблемы со скриншотами, переходом по ссылками, скачиванием торрентов - проблемы в блокировщике рекламы AdBlock. #хорошегоДня!


Статистика раздачи
Размер:  273 MB   |    Зарегистрирован:  4 года 9 месяцев   |    .torrent скачан:  19 раз   |   
Раздают:  1  
   
Загрузка...
 
Автор Сообщение

Galfimbul

avatar Galfimbul


The Albion Band - Demi Paradise

Жанр: Electric Folk Rock
Страна-производитель диска: UK
Год издания диска: 1999
Издатель (лейбл): HTD Records/Castle Music Ltd.
Номер по каталогу: TRACD 337
Страна: UK
Аудио кодек: FLAC (*.flac)
Тип рипа: tracks+.cue
Битрейт аудио: lossless
Продолжительность: 00:48:14
Источник (релизер): liesabath
Наличие сканов в содержимом раздачи: да

Треклист:

01. Don't Let Me Come Home A Stanger 04:18
02. Ivory Tower 03:02
03. Along The Pilgrim's Way 04:05
04. My Secret Place 03:45
05. Reels- The Gaspe Reel,Sam"S Slammer,Imogen's Ridge 04:03
06. Young Man Cut Down In His Prime 04:23
07. When She Sings In The Kitchen 03:48
08. White Water Running 04:18
09. Sea Of Sorrow 03:31
10. Jigs- The Switchback, The New Book, The Slippery Slope 02:57
11. This Blessed Plot 05:22
12. Circle Round The Sun 04:42
Exact Audio Copy V0.99 prebeta 3 from 28. July 2007

EAC extraction logfile from 24. January 2010, 14:06

The Albion Band / Demi Paradise

Used drive : HL-DT-STDVD-RAM GH22LP20 Adapter: 0 ID: 0

Read mode : SecureUtilize accurate stream : YesDefeat audio cache : YesMake use of C2 pointers : No

Read offset correction : 102Overread into Lead-In and Lead-Out : NoFill up missing offset samples with silence : YesDelete leading and trailing silent blocks : NoNull samples used in CRC calculations : YesUsed interface : Native Win32 interface for Win NT & 2000Gap handling : Appended to previous track

Used output format : Internal WAV RoutinesSample format : 44.100 Hz; 16 Bit; Stereo

TOC of the extracted CD

Track | Start | Length | Start sector | End sector --------------------------------------------------------- 1 | 0:00.32 | 4:17.73 | 32 | 19379 2 | 4:18.30 | 3:02.22 | 19380 | 33051 3 | 7:20.52 | 4:04.58 | 33052 | 51409 4 | 11:25.35 | 3:44.47 | 51410 | 68256 5 | 15:10.07 | 4:02.73 | 68257 | 86479 6 | 19:13.05 | 4:23.25 | 86480 | 106229 7 | 23:36.30 | 3:47.67 | 106230 | 123321 8 | 27:24.22 | 4:18.35 | 123322 | 142706 9 | 31:42.57 | 3:31.15 | 142707 | 158546 10 | 35:13.72 | 2:56.45 | 158547 | 171791 11 | 38:10.42 | 5:22.20 | 171792 | 195961 12 | 43:32.62 | 4:42.00 | 195962 | 217111

Track 1

Filename I:\The Albion Band - Demi Paradise (1996) [FLAC]\01 - Don't Let Me Come Home A Stanger.wav

Pre-gap length 0:00:02.42

Peak level 92.0 % Track quality 100.0 % Test CRC 7128F84C Copy CRC 7128F84C Cannot be verified as accurate (confidence 2) [4CC7A3AD], AccurateRip returned [5CA9E0DD] Copy OK

Track 2

Filename I:\The Albion Band - Demi Paradise (1996) [FLAC]\02 - Ivory Tower.wav

Pre-gap length 0:00:02.30

Peak level 87.8 % Track quality 99.9 % Test CRC B97B9712 Copy CRC B97B9712 Cannot be verified as accurate (confidence 2) [74110556], AccurateRip returned [FAB90456] Copy OK

Track 3

Filename I:\The Albion Band - Demi Paradise (1996) [FLAC]\03 - Along The Pilgrim's Way.wav

Pre-gap length 0:00:02.33

Peak level 67.3 % Track quality 100.0 % Test CRC 4D9D7D02 Copy CRC 4D9D7D02 Cannot be verified as accurate (confidence 2) [85DBD602], AccurateRip returned [C70C5702] Copy OK

Track 4

Filename I:\The Albion Band - Demi Paradise (1996) [FLAC]\04 - My Secret Place.wav

Pre-gap length 0:00:02.17

Peak level 75.2 % Track quality 100.0 % Test CRC FFC2DCE1 Copy CRC FFC2DCE1 Cannot be verified as accurate (confidence 2) [5ACBD213], AccurateRip returned [8D3E2F53] Copy OK

Track 5

Filename I:\The Albion Band - Demi Paradise (1996) [FLAC]\05 - Reels- The Gaspe Reel,Sam''s Slammer,Imogen's Ridge.wav

Pre-gap length 0:00:02.00

Peak level 59.9 % Track quality 100.0 % Test CRC CCBA0336 Copy CRC CCBA0336 Cannot be verified as accurate (confidence 2) [28FD33CE], AccurateRip returned [3A6443AE] Copy OK

Track 6

Filename I:\The Albion Band - Demi Paradise (1996) [FLAC]\06 - Young Man Cut Down In His Prime.wav

Pre-gap length 0:00:03.06

Peak level 62.1 % Track quality 99.9 % Test CRC 95545C66 Copy CRC 95545C66 Cannot be verified as accurate (confidence 2) [3C872818], AccurateRip returned [7AF498D8] Copy OK

Track 7

Filename I:\The Albion Band - Demi Paradise (1996) [FLAC]\07 - When She Sings In THe Kitchen.wav

Pre-gap length 0:00:03.06

Peak level 92.0 % Track quality 100.0 % Test CRC EAF986F6 Copy CRC EAF986F6 Cannot be verified as accurate (confidence 2) [97EE40FD], AccurateRip returned [EFC0A19D] Copy OK

Track 8

Filename I:\The Albion Band - Demi Paradise (1996) [FLAC]\08 - White Water Running.wav

Pre-gap length 0:00:02.06

Peak level 98.9 % Track quality 100.0 % Test CRC 0C3EDFDE Copy CRC 0C3EDFDE Cannot be verified as accurate (confidence 2) [CBBFE462], AccurateRip returned [F360F49A] Copy OK

Track 9

Filename I:\The Albion Band - Demi Paradise (1996) [FLAC]\09 - Sea Of Sorrow.wav

Pre-gap length 0:00:02.20

Peak level 77.2 % Track quality 99.9 % Test CRC 891C3CE0 Copy CRC 891C3CE0 Cannot be verified as accurate (confidence 2) [8D90915B], AccurateRip returned [72042C33] Copy OK

Track 10

Filename I:\The Albion Band - Demi Paradise (1996) [FLAC]\10 - Jigs- The Switchback, The New Book, The Slippery Slope.wav

Pre-gap length 0:00:03.06

Peak level 80.1 % Track quality 100.0 % Test CRC 4682E987 Copy CRC 4682E987 Cannot be verified as accurate (confidence 2) [2B312CDC], AccurateRip returned [52E8C294] Copy OK

Track 11

Filename I:\The Albion Band - Demi Paradise (1996) [FLAC]\11 - This Blessed Plot.wav

Suspicious position 0:02:10

Peak level 66.1 % Track quality 99.4 % Test CRC FE13B574 Copy CRC 04CDABCB Cannot be verified as accurate (confidence 2) [3DC74390], AccurateRip returned [5E0DD693] Copy finished

Track 12

Filename I:\The Albion Band - Demi Paradise (1996) [FLAC]\12 - Circle Round The Sun.wav

Peak level 91.6 % Track quality 100.0 % Test CRC F74737EC Copy CRC F74737EC Cannot be verified as accurate (confidence 2) [C9DB6FDE], AccurateRip returned [823C5FDD] Copy OK

No tracks could be verified as accurate

There were errors

End of status report
REM DATE 1996REM DISCID 930B4E0CREM COMMENT "ExactAudioCopy v0.99pb3"PERFORMER "The Albion Band"TITLE "Demi Paradise"FILE "01 - Don't Let Me Come Home A Stanger.wav" WAVE TRACK 01 AUDIO TITLE "Don't Let Me Come Home A Stanger" PERFORMER "The Albion Band" PREGAP 00:00:32 INDEX 01 00:00:00 TRACK 02 AUDIO TITLE "Ivory Tower" PERFORMER "The Albion Band" INDEX 00 04:15:50FILE "02 - Ivory Tower.wav" WAVE INDEX 01 00:00:00 TRACK 03 AUDIO TITLE "Along The Pilgrim's Way" PERFORMER "The Albion Band" INDEX 00 02:59:72FILE "03 - Along The Pilgrim's Way.wav" WAVE INDEX 01 00:00:00 TRACK 04 AUDIO TITLE "My Secret Place" PERFORMER "The Albion Band" INDEX 00 04:02:45FILE "04 - My Secret Place.wav" WAVE INDEX 01 00:00:00 TRACK 05 AUDIO TITLE "Reels: The Gaspe Reel/Sam''s Slammer/Imogen's Ridge" PERFORMER "The Albion Band" INDEX 00 03:42:47FILE "05 - Reels- The Gaspe Reel,Sam''s Slammer,Imogen's Ridge.wav" WAVE INDEX 01 00:00:00 TRACK 06 AUDIO TITLE "Young Man Cut Down In His Prime" PERFORMER "The Albion Band" INDEX 00 03:59:68FILE "06 - Young Man Cut Down In His Prime.wav" WAVE INDEX 01 00:00:00 TRACK 07 AUDIO TITLE "When She Sings In THe Kitchen" PERFORMER "The Albion Band" INDEX 00 04:20:20FILE "07 - When She Sings In THe Kitchen.wav" WAVE INDEX 01 00:00:00 TRACK 08 AUDIO TITLE "White Water Running" PERFORMER "The Albion Band" INDEX 00 03:45:62FILE "08 - White Water Running.wav" WAVE INDEX 01 00:00:00 TRACK 09 AUDIO TITLE "Sea Of Sorrow" PERFORMER "The Albion Band" INDEX 00 04:16:20FILE "09 - Sea Of Sorrow.wav" WAVE INDEX 01 00:00:00 TRACK 10 AUDIO TITLE "Jigs: The Switchback/ The New Book/ The Slippery Slope" PERFORMER "The Albion Band" INDEX 00 03:28:10FILE "10 - Jigs- The Switchback, The New Book, The Slippery Slope.wav" WAVE INDEX 01 00:00:00FILE "11 - This Blessed Plot.wav" WAVE TRACK 11 AUDIO TITLE "This Blessed Plot" PERFORMER "The Albion Band" INDEX 01 00:00:00FILE "12 - Circle Round The Sun.wav" WAVE TRACK 12 AUDIO TITLE "Circle Round The Sun" PERFORMER "The Albion Band" INDEX 01 00:00:00
-----------------------

DON'T MODIFY THIS FILE

-----------------------

PERFORMER: auCDtect Task Manager, ver. 1.5.1RC4 build 1.5.1.5Copyright (c) 2008-2010 y-soft. All rights reservedhttp://y-soft.org

ANALYZER: auCDtect: CD records authenticity detector, version 0.8.2Copyright (c) 2004 Oleg Berngardt. All rights reserved.Copyright (c) 2004 Alexander Djourik. All rights reserved.

FILE: 12 - Circle Round The Sun.flac Size: 27599465 Hash: D9F22A1E78848B6727813E1EA1BDF39A Accuracy: -m8 Conclusion: CDDA 100% Signature: 4E18711F28AF3690F42E52B704A8B10CFF4C99A2FILE: 11 - This Blessed Plot.flac Size: 25339345 Hash: 3140AC43F214551F2CEE33F8C8080DA6 Accuracy: -m8 Conclusion: CDDA 100% Signature: 731E83A4CAAC18E14E9AFA1A9CE13FB63AB2AB86FILE: 10 - Jigs- The Switchback, The New Book, The Slippery Slope.flac Size: 18826399 Hash: 3EB478F037163C9448A3022A5B09F072 Accuracy: -m8 Conclusion: CDDA 100% Signature: 7A85BD54432FFBD9869E584933483917A60F01CAFILE: 09 - Sea Of Sorrow.flac Size: 19200813 Hash: AFD866D3C23E8EB35FD9B1B80D111ED3 Accuracy: -m8 Conclusion: CDDA 99% Signature: 7C756EF27608C52B204C52FAAA073001E8776F5FFILE: 08 - White Water Running.flac Size: 25828766 Hash: 35D3EC88295F31C83DB6B4052916E2A0 Accuracy: -m8 Conclusion: CDDA 100% Signature: 09E69BF69245BD67EE452EFE1D212663D2AC4615FILE: 07 - When She Sings In THe Kitchen.flac Size: 21633201 Hash: 36D1ECAE98CB31D98153F502C5ADAEC5 Accuracy: -m8 Conclusion: CDDA 100% Signature: AB7FBA313157DF79CB84D2C00C9412B9D7077087FILE: 06 - Young Man Cut Down In His Prime.flac Size: 19806150 Hash: CC7A80348FEB245A7471C91D294C9224 Accuracy: -m8 Conclusion: CDDA 100% Signature: 8E9309DCF8D4A8DBED1381CECB2278321AB9E70EFILE: 05 - Reels- The Gaspe Reel,Sam''s Slammer,Imogen's Ridge.flac Size: 23228485 Hash: 5C072D352FCE1846FC130173454665C3 Accuracy: -m8 Conclusion: CDDA 100% Signature: 3D833FCDC01CABBD01304B8986D052129255EFE5FILE: 04 - My Secret Place.flac Size: 17683157 Hash: CA5B8D15159F311727197C7CDC8C39D6 Accuracy: -m8 Conclusion: CDDA 100% Signature: A7948BD66271D99F43143D493DF38064FB02996CFILE: 03 - Along The Pilgrim's Way.flac Size: 22285201 Hash: 4E61F2786AB9AE58F184D88A68C76766 Accuracy: -m8 Conclusion: CDDA 100% Signature: 71324D118FAA58AA72CA5617C7CF0C88A37D3764FILE: 02 - Ivory Tower.flac Size: 19976296 Hash: 8654D6BEAB829DA6B28808E41C1E2B89 Accuracy: -m8 Conclusion: CDDA 100% Signature: F8B2AC3AF743F200538EBE8C756BEDCCE642A6BEFILE: 01 - Don't Let Me Come Home A Stanger.flac Size: 25161507 Hash: 0A4215971453753960B2048E2629934E Accuracy: -m8 Conclusion: CDDA 100% Signature: 3D26992A1ED7537D49BF8F0FD4E1854ECEE21165
Доп. информация:
Albion Country Band - именно так изначально именовалась британская electric folk группа The Albion Band. Эту формацию обычно относят к наиболее значительным представителям жанра folk на территории Англии. Группа была собрана в апреле 1971 года Эшли Хатчингсом (Ashley Hutchings) сыгравшим значительную роль в становлении Fairport Convention и Steeleye Span. Но на тот момент Albion Country Band являлись лишь аккомпанирующим коллективом его супруги Ширли Коллинз (Shirley Collins) для ее сольника No Roses. Ключевыми фигурами того состава были: Дэйв Мэттэкс (Dave Mattacks), Ричард Томпсон (Richard Thompson) и Саймон Найкол (Simon Nicol) из Fairport Convention, Лэл и Майк Уотерсон (Lal & Mike Watersons) из The Watersons, а также Мэдди Прайор (Maddy Prior) из Steeleye Span. Первые два года существования группы ее состав не отличался стабильностью, что и привело к ее фактическому распаду в 1973 году. Единственный альбом Battle of the Field вышел лишь в 1976 году, другие редкие записи первых лет появились в 1998 году на пластинке BBC Sessions. С 1974 по 1976 год Хатчингс занимался новым проектом The Etchingham Steam Band со своей женой Ширли. А уже в 1977 году Albion Country Band были реанимированы под вывеской The Albion Dance Band для исполнения народной танцевальной музыки. Список участников проекта достиг двух десятков человек. Необходимо отметить таких участников как: Саймон Найкол и Грэм Тэйлор (Graeme Taylor) из группы Gryphon, один из лучших folk-вокалистов Джон Тэмс (John Tams), а также скрипач Рич Сэндерс (Ric Sanders). Результаты их сотрудничества выражены в альбоме того же года The Prospect Before Us. В 1978 году группа сократила название до привычного The Albion Band и записала альбом Rise Up Like the Sun, оказавшимся вершиной творческого пути коллектива.


Трекер:  [ 10-Янв-2013 11:09 ]

  

Скачать .torrent

Размер .torrent файла 12 KB


Размер: 273 MB
Хэш (hash) релиза: 906c68bf22ba34c4dc9afbf1a40b0834c6520d5d

Еще никто не оставлял запись к записи скачать торрент The Albion Band - Demi Paradise - 1996 . Будь первым!

!Обратная связь