Скачать через торрент Desire II - 2009 ALAC, lossless бесплатно русская версия torrent активатор

Если у вас наблюдаются проблемы со скриншотами, переходом по ссылками, скачиванием торрентов - проблемы в блокировщике рекламы AdBlock. #хорошегоДня!


Статистика раздачи
Размер:  238 MB   |    Зарегистрирован:  4 года 9 месяцев   |    .torrent скачан:  30 раз   |   
Раздают:  1  
   
Загрузка...
 
Автор Сообщение

Galfimbul

avatar Galfimbul


Desire / II

Год: 2009
Страна: US/Canada
Жанр: Electronic/Italo Disco
Продолжительность: 41:06
Вшитые тексты: добавлены частично
Кодек: ALAC
Программа-риповщик : foobar2000 + iTunes (lossless)
Битрейт: lossless
Треклист:
01 Montre Moi Ton Visage 2:35
02 Miroir Miroir 5:18
03 Don't Call 4:35
04 Dans Mes Reves 5:23
05 Under Your Spell 4:56
06 Colorless Sky 3:56
07 If I Can't Hold You 7:18
08 Part II 7:10
Corrected file names, tags, cue and m3u for tracks 5, 7, and 8. Log is unedited.

If you snatched the previous upload, rename
05 - Under You Spell.flac ==> 05 - Under Your Spell.flac
07 - Oxygene.flac ==> 07 - If I Can't Hold You.flac
08 - If I Can't Hold You.flac ==> 08 - Part II.flac
Exact Audio Copy V0.99 prebeta 4 from 23. January 2008

EAC extraction logfile from 12. October 2009, 14:59

Desire / II

Used drive : SONY DVD RW DRU-720A Adapter: 0 ID: 1

Read mode : SecureUtilize accurate stream : YesDefeat audio cache : YesMake use of C2 pointers : No

Read offset correction : 12Overread into Lead-In and Lead-Out : NoFill up missing offset samples with silence : YesDelete leading and trailing silent blocks : NoNull samples used in CRC calculations : YesUsed interface : Native Win32 interface for Win NT & 2000Gap handling : Appended to previous track

Used output format : User Defined EncoderSelected bitrate : 192 kBit/sQuality : HighAdd ID3 tag : NoCommand line compressor : C:\Program Files\FLAC\flac.exeAdditional command line options : -V -8 -T \"artist=%a\" -T \"title=%t\" -T \"album=%g\" -T \"date=%y\" -T \"tracknumber=%n\" -T \"genre=%m\" %s

TOC of the extracted CD

Track | Start | Length | Start sector | End sector --------------------------------------------------------- 1 | 0:00.00 | 2:34.65 | 0 | 11614 2 | 2:34.65 | 5:18.23 | 11615 | 35487 3 | 7:53.13 | 4:34.40 | 35488 | 56077 4 | 12:27.53 | 5:22.47 | 56078 | 80274 5 | 17:50.25 | 4:56.30 | 80275 | 102504 6 | 22:46.55 | 3:55.42 | 102505 | 120171 7 | 26:42.22 | 7:18.37 | 120172 | 153058 8 | 34:00.59 | 7:09.54 | 153059 | 185287

Track 1

Filename C:\Desire - 2009 - II - FLAC\01 - Montre Moi Ton Visage.wav

Pre-gap length 0:00:02.00

Peak level 96.9 % Track quality 100.0 % Test CRC 79BDF3E9 Copy CRC 79BDF3E9 Copy OK

Track 2

Filename C:\Desire - 2009 - II - FLAC\02 - Miroir Miroir.wav

Peak level 98.7 % Track quality 100.0 % Test CRC F24AC4F2 Copy CRC F24AC4F2 Copy OK

Track 3

Filename C:\Desire - 2009 - II - FLAC\03 - Don't Call.wav

Peak level 99.9 % Track quality 100.0 % Test CRC F7B2B124 Copy CRC F7B2B124 Copy OK

Track 4

Filename C:\Desire - 2009 - II - FLAC\04 - Dans Mes Reves.wav

Peak level 99.9 % Track quality 100.0 % Test CRC 11037304 Copy CRC 11037304 Copy OK

Track 5

Filename C:\Desire - 2009 - II - FLAC\05 - Under Your Spell.wav

Peak level 98.1 % Track quality 100.0 % Test CRC CFF80299 Copy CRC CFF80299 Copy OK

Track 6

Filename C:\Desire - 2009 - II - FLAC\06 - Colorless Sky.wav

Peak level 98.9 % Track quality 100.0 % Test CRC B8CBD055 Copy CRC B8CBD055 Copy OK

Track 7

Filename C:\Desire - 2009 - II - FLAC\07 - Oxygene.wav

Peak level 98.8 % Track quality 100.0 % Test CRC 699C6B7B Copy CRC 699C6B7B Copy OK

Track 8

Filename C:\Desire - 2009 - II - FLAC\08 - If I Can't Hold You.wav

Peak level 98.0 % Track quality 99.9 % Test CRC DFB4948F Copy CRC DFB4948F Copy OK

No errors occurred

End of status report


Трекер:  [ 10-Янв-2013 11:01 ]

  

Скачать .torrent

Размер .torrent файла 19 KB


Размер: 238 MB
Хэш (hash) релиза: 299fe2cc1bc5667541381b2b962001a0c0672c22

Еще никто не оставлял запись к записи скачать торрент Desire II - 2009 ALAC, lossless . Будь первым!

!Обратная связь