Скачать через торрент музыку Rainbow - Long Live Rock n Roll - 1978, FLAC бесплатно без регистрации torrent

Если у вас наблюдаются проблемы со скриншотами, переходом по ссылками, скачиванием торрентов - проблемы в блокировщике рекламы AdBlock. #хорошегоДня!


Статистика раздачи
Размер:  239 MB   |    Зарегистрирован:  4 года 7 месяцев   |    .torrent скачан:  19 раз   |   
Раздают:  1  
   
Загрузка...
 
Автор Сообщение

Galfimbul

avatar Galfimbul


Rainbow / Long Live Rock 'n' Roll

Жанр: Hard Rock, Classic Rock
Страна-производитель диска: USA
Год издания: 1978
Издатель (лейбл): PolyGram Records Inc.
Номер по каталогу: 825 090-2 Y-1
Страна: UK & USA
Аудиокодек: FLAC (*.flac)
Тип рипа: image+.cue
Битрейт аудио: lossless
Продолжительность: 00:39:30
Источник (релизер): metrock (Rockandroller)
Наличие сканов в содержимом раздачи: да
Треклист:
01. Long Live Rock 'N' Roll (4:22)
02. Lady Of The Lake (3:39)
03. L.A. Connection (5:03)
04. Gates Of Babylon (6:50)
05. Kill The King (4:30)
06. The Shed (Subtle) (4:47)
07. Sensitive To Light (3:07)
08. Rainbow Eyes (7:13)
Exact Audio Copy V0.99 prebeta 5 from 4. May 2009

Отчёт EAC об извлечении, выполненном 26. июня 2010, 5:34

Rainbow / Long Live Rock 'N' Roll

Дисковод: PIONEER DVD-RW DVR-112L Adapter: 1 ID: 0

Режим чтения : ДостоверностьИспользование точного потока : ДаОтключение кэша аудио : ДаИспользование указателей C2 : Нет

Коррекция смещения при чтении : 48Способность читать области Lead-in и Lead-out : НетЗаполнение пропущенных сэмплов тишиной : ДаУдаление блоков с тишиной в начале и конце : НетПри вычислениях CRC использовались нулевые сэмплы : ДаИнтерфейс : Установленный внешний ASPI-интерфейс

Выходной формат : Внутренние WAV-операцииФормат сэмплов : 44.100 Гц; 16 бит; стерео

TOC извлечённого CD

Трек | Старт | Длительность | Начальный сектор | Конечный сектор --------------------------------------------------------------------- 1 | 0:00.32 | 4:21.58 | 32 | 19664 2 | 4:22.15 | 3:39.20 | 19665 | 36109 3 | 8:01.35 | 5:02.42 | 36110 | 58801 4 | 13:04.02 | 6:49.48 | 58802 | 89524 5 | 19:53.50 | 4:29.50 | 89525 | 109749 6 | 24:23.25 | 4:47.20 | 109750 | 131294 7 | 29:10.45 | 3:07.37 | 131295 | 145356 8 | 32:18.07 | 7:12.58 | 145357 | 177814

Характеристики диапазона извлечения и сообщения об ошибках

Выбранный диапазон

Имя файла D:\Rainbow - Long Live Rock 'N' Roll (82590-2 Y-1)\Rainbow - Long Live Rock 'N' Roll.wav

Пиковый уровень 96.3 % Качество диапазона 100.0 % CRC копии 18AD337F Копирование... OK

Ошибок не произошло

AccurateRip: сводка

Трек 1 точность не определена (достоверность 31) [D41AD91A], AccurateRip вернул [657448EA]Трек 2 точность не определена (достоверность 30) [977E4256], AccurateRip вернул [B7EBBB96]Трек 3 точность не определена (достоверность 30) [9E5AE948], AccurateRip вернул [767EF7E8]Трек 4 точность не определена (достоверность 30) [C20B5495], AccurateRip вернул [D3E1E856]Трек 5 точность не определена (достоверность 30) [0AC2F4D8], AccurateRip вернул [33B05FB0]Трек 6 точность не определена (достоверность 30) [C22DC4CF], AccurateRip вернул [C64B08E4]Трек 7 точность не определена (достоверность 30) [250DC8EB], AccurateRip вернул [BFF21DFB]Трек 8 точность не определена (достоверность 27) [4AA6A0AC], AccurateRip вернул [82F15EA6]

Ни один трек не прошёл проверки на точностьВ вашей базе может быть иной вариант штамповки диска

Конец отчёта
REM GENRE "Hard Rock"REM DATE 1978REM DISCID 6F094208REM COMMENT "ExactAudioCopy v0.99pb5"CATALOG 0042282509024PERFORMER "Rainbow"TITLE "Long Live Rock 'N' Roll"FILE "Rainbow - Long Live Rock 'N' Roll.flac" WAVE TRACK 01 AUDIO TITLE "Long Live Rock 'N' Roll" PERFORMER "Rainbow" ISRC @;:147800010 INDEX 00 00:00:00 INDEX 01 00:00:32 TRACK 02 AUDIO TITLE "Lady Of The Lake" PERFORMER "Rainbow" ISRC @;:147800030 INDEX 00 04:20:52 INDEX 01 04:22:15 TRACK 03 AUDIO TITLE "L.A. Connection" PERFORMER "Rainbow" ISRC @;:147800040 INDEX 00 08:00:20 INDEX 01 08:01:35 TRACK 04 AUDIO TITLE "Gates Of Babylon" PERFORMER "Rainbow" ISRC @;:147800020 INDEX 00 12:59:50 INDEX 01 13:04:02 TRACK 05 AUDIO TITLE "Kill The King" PERFORMER "Rainbow" ISRC @;:147700010 INDEX 00 19:52:05 INDEX 01 19:53:50 TRACK 06 AUDIO TITLE "The Shed (Subtle)" PERFORMER "Rainbow" ISRC @;:147800050 INDEX 00 24:22:51 INDEX 01 24:23:25 TRACK 07 AUDIO TITLE "Sensitive To Light" PERFORMER "Rainbow" ISRC @;:147800060 INDEX 00 29:09:72 INDEX 01 29:10:45 TRACK 08 AUDIO TITLE "Rainbow Eyes" PERFORMER "Rainbow" ISRC @;:147800070 INDEX 00 32:16:12 INDEX 01 32:18:07
Доп. информация: http://www.discogs.com/Rainbow-Long-Live-Rock-n-Roll/release/4154318

Трекер:  [ 09-Янв-2013 17:16 ]

  

Скачать .torrent

Размер .torrent файла 19 KB


Размер: 239 MB
Хэш (hash) релиза: c73a6313077d9c0a1e56af41848246d6706e5d9f

Еще никто не оставлял запись к записи скачать торрент Rainbow - Long Live Rock n Roll - 1978, FLAC . Будь первым!

!Обратная связь