Скачать через торрент музыку Guns N Roses - Dont Cry бесплатно без регистрации torrent

Если у вас наблюдаются проблемы со скриншотами, переходом по ссылками, скачиванием торрентов - проблемы в блокировщике рекламы AdBlock. #хорошегоДня!


Статистика раздачи
Размер:  94 MB   |    Зарегистрирован:  4 года 7 месяцев   |    .torrent скачан:  27 раз   |   
Раздают:  1  
   
Загрузка...
 
Автор Сообщение

Galfimbul

avatar Galfimbul


Guns N' Roses / Don't Cry

Жанр: Hard Rock
Страна-производитель диска: Germany
Год издания: 1991
Издатель (лейбл): Geffen Records
Номер по каталогу: GED 21651
Страна: US
Аудиокодек: FLAC (*.flac)
Тип рипа: image+.cue
Битрейт аудио: lossless
Продолжительность: 00:14:18
Источник (релизер): avax
Наличие сканов в содержимом раздачи: да
Треклист:
1 Don't Cry (Original) 4:48
2 Don't Cry (Alt. Lyrics) 4:48
3 Don't Cry (Demo) 4:40
Exact Audio Copy V1.0 beta 3 from 29. August 2011

EAC extraction logfile from 25. June 2012, 8:45

Guns N' Roses / Don't Cry

Used drive : PIONEER BD-RW BDR-206 Adapter: 2 ID: 3

Read mode : SecureUtilize accurate stream : YesDefeat audio cache : YesMake use of C2 pointers : No

Read offset correction : 667Overread into Lead-In and Lead-Out : NoFill up missing offset samples with silence : YesDelete leading and trailing silent blocks : NoNull samples used in CRC calculations : YesUsed interface : Native Win32 interface for Win NT & 2000

Used output format : User Defined EncoderSelected bitrate : 896 kBit/sQuality : HighAdd ID3 tag : NoCommand line compressor : C:\Program Files\FLAC\flac.exeAdditional command line options : -5 -T "Artist=%artist%" -T "Title=%title%" -T "Album=%albumtitle%" -T "Date=%year%" -T "Tracknumber=%tracknr%" -T "Genre=%genre%" %source% -o %dest%

TOC of the extracted CD

Track | Start | Length | Start sector | End sector --------------------------------------------------------- 1 | 0:00.33 | 4:48.67 | 33 | 21699 2 | 4:49.25 | 4:48.13 | 21700 | 43312 3 | 9:37.38 | 4:40.27 | 43313 | 64339

Range status and errors

Selected range

Filename I:\=== VINYL RIPS ===\=== EAC===\X FRESH RIP\Guns N' Roses - Don't Cry.wav

Peak level 100.0 % Extraction speed 5.2 X Range quality 99.9 % Test CRC 6D8FE837 Copy CRC 6D8FE837 Copy OK

No errors occurred

AccurateRip summary

Track 1 accurately ripped (confidence 3) [84AAB520] (AR v2)Track 2 accurately ripped (confidence 3) [939D0498] (AR v2)Track 3 accurately ripped (confidence 3) [9FCF30FF] (AR v2)

All tracks accurately ripped

End of status report

---- CUETools DB Plugin V2.1.3

[CTDB TOCID: sfpGuewoWBCQNy_KkJG_qbroSsU-] disk not present in database, Submit result: discs with pregaps not supported in this protocol version

==== Log checksum FE64E6430607ABCA27ECD38B1BB2D281F05ADED3E0363628F6B8FA4D8F2E499F ====
AUDIOCHECKER v2.0 beta (build 457) - by Dester - <a href="mailto:opdester@freemail.hu" class="postLink">opdester@freemail.hu</a>~~~~~~~~~~~~~~~~~~~~~~~~~~~~~~~~~~-=== DO NOT EDIT THIS FILE! ===-

Path: ...\Guns N' Roses - Don't Cry {Germany 1991}

1 -=- Guns N' Roses - Don't Cry.flac -=- CDDA (100%)

146438004


Трекер:  [ 09-Янв-2013 17:15 ]

  

Скачать .torrent

Размер .torrent файла 15 KB


Размер: 94 MB
Хэш (hash) релиза: b5f3e5717783becc55dad0430be51cc38769a455

Еще никто не оставлял запись к записи скачать торрент Guns N Roses - Dont Cry . Будь первым!

!Обратная связь