Скачать через торрент Адвайта — Не спать - 2012 бесплатно русская версия torrent активатор

Если у вас наблюдаются проблемы со скриншотами, переходом по ссылками, скачиванием торрентов - проблемы в блокировщике рекламы AdBlock. #хорошегоДня!


Статистика раздачи
Размер:  409 MB   |    Зарегистрирован:  4 года 9 месяцев   |    .torrent скачан:  33 раза   |   
Раздают:  1  
   
Загрузка...
 
Автор Сообщение

Galfimbul

avatar Galfimbul


АдвайтаНе спать
Год: 2012
Страна: Россия (г. Екатеринбург)
Страна-производитель диска: Россия
Жанр: Hip-Hop
Тип издания: оригинал
Наличие сканов в содержимом раздачи: да
Продолжительность: 01:00:28
Вшитые тексты: не добавлены
Кодек: ALAC
Программа-риповщик : EAC (диск)
Битрейт: lossless
Треклист:

01 Адвайта — Интро
02 Адвайта — Сон
слова: C4, Фиска; музыка: C4
03 Адвайта ft. Карат — Так и живём
слова: C4, Фиска, Карат; музыка: Supastep, C4
04 Адвайта ft. Lotos — На части
слова: Фиска, Lotos, C4; музыка: C4
05 Адвайта — Вспомним
слова: C4, Фиска; музыка: Ликий, C4
06 Адвайта — Остаюсь здесь
слова: C4, Фиска, музыка: C4
07 Адвайта ft. Ликий — Мысли
слова: Фиска, C4; музыка: Ликий, C4
08 Адвайта — Разные
слова: C4, Фиска; музыка: C4
09 Адвайта ft. Slim & Словетский — Не поймать
слова: Словетский, Фиска, C4, Slim; музыка: C4
10 Адвайта — Тот же
слова и музыка: C4
11 Адвайта — Серые будни
слова: C4, Фиска; музыка: C4
12 Адвайта — Пока ты спал
слова: C4, Фиска; музыка: C4
13 Адвайта ft. Витяй Счастье — Забыты всеми
слова: Фиска, C4, Витяй Счастье; музыка: C4
14 Адвайта — Счастье
слова: Фиска, C4; музыка: Ликий, C4
15 Адвайта ft. Грубый Ниоткуда — За облака
слова: C4, Фиска, Грубый Ниоткуда; музыка: C4
16 Адвайта — Вкатит
слова: C4, Фиска; музыка: C4
17 Адвайта ft. Ликий — Брат
слова: Фиска, C4; музыка: Ликий, C4
18 Адвайта ft. Ликий — Мой бог
слова: Ликий, Фиска, C4; музыка: Ликий, C4

scratch: DJ Chell
запись: Le Arestantz production; Black Wood Records
сведение, мастеринг альбома: Непризнанный Талант (DPS rec)
оформление, дизайн: PingWIN
Exact Audio Copy V1.0 beta 3 from 29. August 2011

Отчёт EAC об извлечении, выполненном 1. января 2013, 20:47

Адвайта / Не спать

Дисковод: PLEXTOR DVDR PX-890SA Adapter: 2 ID: 0

Режим чтения : ДостоверностьИспользование точного потока : ДаОтключение кэша аудио : ДаИспользование указателей C2 : Нет

Коррекция смещения при чтении : 6Способность читать области Lead-in и Lead-out : НетЗаполнение пропущенных сэмплов тишиной : ДаУдаление блоков с тишиной в начале и конце : НетПри вычислениях CRC использовались нулевые сэмплы : ДаИнтерфейс : Встроенный Win32-интерфейс для Win NT/2000Обработка зазоров : Добавлено к предыдущему треку

Выходной формат : Пользовательский кодировщикВыбранный битрейт : 768 kBit/sКачество : ВысокийДобавление ID3-тега : НетУтилита сжатия : C:\Program Files (x86)\Exact Audio Copy\FLAC\FLAC.EXEДополнительные параметры : -V -8 -T "Genre=%genre%" -T "Artist=%artist%" -T "Albumartist=%albumartist%" -T "Title=%title%" -T "Album=%albumtitle%" -T "Date=%year%" -T "Tracknumber=%tracknr%" -T "Composer=%composer%" -T "Comment=ripped by Rulezzz1" %source% %hascover%--picture="%coverfile%"

TOC извлечённого CD

Трек | Старт | Длительность | Начальный сектор | Конечный сектор --------------------------------------------------------------------- 1 | 0:00.00 | 0:38.74 | 0 | 2923 2 | 0:38.74 | 2:49.40 | 2924 | 15638 3 | 3:28.39 | 3:55.01 | 15639 | 33264 4 | 7:23.40 | 3:42.74 | 33265 | 49988 5 | 11:06.39 | 3:35.56 | 49989 | 66169 6 | 14:42.20 | 2:55.42 | 66170 | 79336 7 | 17:37.62 | 3:55.67 | 79337 | 97028 8 | 21:33.54 | 2:46.50 | 97029 | 109528 9 | 24:20.29 | 4:56.44 | 109529 | 131772 10 | 29:16.73 | 3:05.70 | 131773 | 145717 11 | 32:22.68 | 3:33.14 | 145718 | 161706 12 | 35:56.07 | 2:57.35 | 161707 | 175016 13 | 38:53.42 | 4:02.40 | 175017 | 193206 14 | 42:56.07 | 3:05.39 | 193207 | 207120 15 | 46:01.46 | 4:12.60 | 207121 | 226080 16 | 50:14.31 | 2:47.33 | 226081 | 238638 17 | 53:01.64 | 3:12.08 | 238639 | 253046 18 | 56:13.72 | 4:11.40 | 253047 | 271911

Трек 1

Имя файла C:\My\Rulezzz1\01 Адвайта — Интро.wav

Длина предзазора 0:00:02.00

Пиковый уровень 68.9 % Скорость извлечения 3.2 X Качество трека 100.0 % CRC теста E89FBE46 CRC копии E89FBE46 Трек не обнаружен в базе AccurateRip Копирование... OK

Трек 2

Имя файла C:\My\Rulezzz1\02 Адвайта — Сон.wav

Пиковый уровень 98.8 % Скорость извлечения 5.4 X Качество трека 100.0 % CRC теста 663DF346 CRC копии 663DF346 Трек не обнаружен в базе AccurateRip Копирование... OK

Трек 3

Имя файла C:\My\Rulezzz1\03 Адвайта ft. Карат — Так и живём.wav

Пиковый уровень 98.8 % Скорость извлечения 5.4 X Качество трека 99.9 % CRC теста 8C8F722F CRC копии 8C8F722F Трек не обнаружен в базе AccurateRip Копирование... OK

Трек 4

Имя файла C:\My\Rulezzz1\04 Адвайта ft. Lotos — На части.wav

Пиковый уровень 98.8 % Скорость извлечения 6.5 X Качество трека 100.0 % CRC теста 74410835 CRC копии 74410835 Трек не обнаружен в базе AccurateRip Копирование... OK

Трек 5

Имя файла C:\My\Rulezzz1\05 Адвайта — Вспомним.wav

Пиковый уровень 98.8 % Скорость извлечения 6.8 X Качество трека 100.0 % CRC теста E0FDB15B CRC копии E0FDB15B Трек не обнаружен в базе AccurateRip Копирование... OK

Трек 6

Имя файла C:\My\Rulezzz1\06 Адвайта — Остаюсь здесь.wav

Пиковый уровень 98.8 % Скорость извлечения 6.9 X Качество трека 100.0 % CRC теста 7D848E9A CRC копии 7D848E9A Трек не обнаружен в базе AccurateRip Копирование... OK

Трек 7

Имя файла C:\My\Rulezzz1\07 Адвайта ft. Ликий — Мысли.wav

Пиковый уровень 98.8 % Скорость извлечения 7.6 X Качество трека 100.0 % CRC теста A9CFD923 CRC копии A9CFD923 Трек не обнаружен в базе AccurateRip Копирование... OK

Трек 8

Имя файла C:\My\Rulezzz1\08 Адвайта — Разные.wav

Пиковый уровень 98.8 % Скорость извлечения 6.3 X Качество трека 99.9 % CRC теста 8F7185E6 CRC копии 8F7185E6 Трек не обнаружен в базе AccurateRip Копирование... OK

Трек 9

Имя файла C:\My\Rulezzz1\09 Адвайта ft. Slim & Словетский — Не поймать.wav

Пиковый уровень 98.8 % Скорость извлечения 8.5 X Качество трека 100.0 % CRC теста 1EAADC4C CRC копии 1EAADC4C Трек не обнаружен в базе AccurateRip Копирование... OK

Трек 10

Имя файла C:\My\Rulezzz1\10 Адвайта — Тот же.wav

Пиковый уровень 98.8 % Скорость извлечения 7.1 X Качество трека 99.9 % CRC теста 0DF56851 CRC копии 0DF56851 Трек не обнаружен в базе AccurateRip Копирование... OK

Трек 11

Имя файла C:\My\Rulezzz1\11 Адвайта — Серые будни.wav

Пиковый уровень 98.8 % Скорость извлечения 8.6 X Качество трека 100.0 % CRC теста 404CEC99 CRC копии 404CEC99 Трек не обнаружен в базе AccurateRip Копирование... OK

Трек 12

Имя файла C:\My\Rulezzz1\12 Адвайта — Пока ты спал.wav

Пиковый уровень 98.8 % Скорость извлечения 8.6 X Качество трека 100.0 % CRC теста CAD65FB7 CRC копии CAD65FB7 Трек не обнаружен в базе AccurateRip Копирование... OK

Трек 13

Имя файла C:\My\Rulezzz1\13 Адвайта ft. Витяй Счастье — Забыты всеми.wav

Пиковый уровень 98.8 % Скорость извлечения 9.3 X Качество трека 100.0 % CRC теста CAC80AC7 CRC копии CAC80AC7 Трек не обнаружен в базе AccurateRip Копирование... OK

Трек 14

Имя файла C:\My\Rulezzz1\14 Адвайта — Счастье.wav

Пиковый уровень 98.8 % Скорость извлечения 9.2 X Качество трека 100.0 % CRC теста A51F80AF CRC копии A51F80AF Трек не обнаружен в базе AccurateRip Копирование... OK

Трек 15

Имя файла C:\My\Rulezzz1\15 Адвайта ft. Грубый Ниоткуда — За облака.wav

Пиковый уровень 98.8 % Скорость извлечения 9.8 X Качество трека 100.0 % CRC теста 3F23995C CRC копии 3F23995C Трек не обнаружен в базе AccurateRip Копирование... OK

Трек 16

Имя файла C:\My\Rulezzz1\16 Адвайта — Вкатит.wav

Пиковый уровень 98.8 % Скорость извлечения 9.3 X Качество трека 100.0 % CRC теста E39295CA CRC копии E39295CA Трек не обнаружен в базе AccurateRip Копирование... OK

Трек 17

Имя файла C:\My\Rulezzz1\17 Адвайта ft. Ликий — Брат.wav

Пиковый уровень 98.8 % Скорость извлечения 9.9 X Качество трека 100.0 % CRC теста 4F826DFE CRC копии 4F826DFE Трек не обнаружен в базе AccurateRip Копирование... OK

Трек 18

Имя файла C:\My\Rulezzz1\18 Адвайта ft. Ликий — Мой бог.wav

Пиковый уровень 98.8 % Скорость извлечения 10.5 X Качество трека 100.0 % CRC теста B842121E CRC копии B842121E Трек не обнаружен в базе AccurateRip Копирование... OK

Ни одного трека нет в базе AccurateRip

Ошибок не произошло

Конец отчёта

---- CUETools DB Plugin V2.1.3

[CTDB TOCID: luarH84escXiELX4uXRIlUVI6O0-] disk not present in database, Submit result: luarH84escXiELX4uXRIlUVI6O0- has been uploaded

==== Контрольная сумма отчёта 94C7A247C13B42438627F09C9AFECC5B25A80057D5CB7D29E9BAFC917780D88E ====
AUDIOCHECKER v2.0 beta (build 457) - by Dester - <a href="mailto:opdester@freemail.hu" class="postLink">opdester@freemail.hu</a>~~~~~~~~~~~~~~~~~~~~~~~~~~~~~~~~~~-=== DO NOT EDIT THIS FILE! ===-

Path: ...\Rulezzz1

01 -=- 01 Адвайта — Интро.flac -=- MPEG (100%)02 -=- 02 Адвайта — Сон.flac -=- CDDA (100%)03 -=- 03 Адвайта ft. Карат — Так и живём.flac -=- CDDA (100%)04 -=- 04 Адвайта ft. Lotos — На части.flac -=- CDDA (100%)05 -=- 05 Адвайта — Вспомним.flac -=- CDDA (99%)06 -=- 06 Адвайта — Остаюсь здесь.flac -=- CDDA (100%)07 -=- 07 Адвайта ft. Ликий — Мысли.flac -=- CDDA (100%)08 -=- 08 Адвайта — Разные.flac -=- CDDA (100%)09 -=- 09 Адвайта ft. Slim & Словетский — Не поймать.flac -=- CDDA (99%)10 -=- 10 Адвайта — Тот же.flac -=- CDDA (100%)11 -=- 11 Адвайта — Серые будни.flac -=- CDDA (100%)12 -=- 12 Адвайта — Пока ты спал.flac -=- CDDA (100%)13 -=- 13 Адвайта ft. Витяй Счастье — Забыты всеми.flac -=- CDDA (100%)14 -=- 14 Адвайта — Счастье.flac -=- CDDA (100%)15 -=- 15 Адвайта ft. Грубый Ниоткуда — За облака.flac -=- CDDA (100%)16 -=- 16 Адвайта — Вкатит.flac -=- CDDA (100%)17 -=- 17 Адвайта ft. Ликий — Брат.flac -=- CDDA (100%)18 -=- 18 Адвайта ft. Ликий — Мой бог.flac -=- CDDA (99%)

Summary 94,28% CDDA

224105524


Трекер:  [ 09-Янв-2013 17:07 ]

  

Скачать .torrent

Размер .torrent файла 17 KB


Размер: 409 MB
Хэш (hash) релиза: d83486ef5f67fcf9894e20371f1220b86585b25e

Еще никто не оставлял запись к записи скачать торрент Адвайта — Не спать - 2012 . Будь первым!

!Обратная связь