Скачать через торрент Eric Clapton - The Very Best: Blues And Ballads - 1994 бесплатно русская версия torrent активатор

Если у вас наблюдаются проблемы со скриншотами, переходом по ссылками, скачиванием торрентов - проблемы в блокировщике рекламы AdBlock. #хорошегоДня!


Статистика раздачи
Размер:  419 MB   |    Зарегистрирован:  4 года 9 месяцев   |    .torrent скачан:  55 раз   |   
Раздают:  1  
   
Загрузка...
 
Автор Сообщение

Galfimbul

avatar Galfimbul


Eric Clapton - The Very Best: Blues And Ballads

Год: 1994
Страна: UK
Страна-производитель диска: EU
Жанр: Blues
Тип издания: сборник
Издатель (лейбл): lasercraft
Номер по каталогу: lc6311
Наличие сканов в содержимом раздачи: нет
Продолжительность: 01:13:33
Вшитые тексты: добавлены
Кодек: ALAC
Программа-риповщик : foobar2000 + iTunes
Битрейт: lossless
Треклист:
01. Wonderful Tonight
02. Tears In Heaven
03. Double Trouble (Live)
04. Layla (Unplugged)
05. Pretty Girl
06. Same Old Blues
07. Running On Faith
08. Rambling On My Mind (Live)
09. Please Be With Me
10. Knockin' On Heaven's Door
11. Old Love
12. It All Depends
13. It's Probably Me (ft. Sting)
Exact Audio Copy V0.99 prebeta 5 from 4. May 2009

Отчёт EAC об извлечении, выполненном 7. января 2013, 12:57

Eric Clapton / The Very Best - Blues And Ballads

Дисковод: HL-DT-STDVDRAM GE20NU10 Adapter: 3 ID: 0

Режим чтения : ДостоверностьИспользование точного потока : ДаОтключение кэша аудио : ДаИспользование указателей C2 : Нет

Коррекция смещения при чтении : 667Способность читать области Lead-in и Lead-out : НетЗаполнение пропущенных сэмплов тишиной : ДаУдаление блоков с тишиной в начале и конце : НетПри вычислениях CRC использовались нулевые сэмплы : ДаИнтерфейс : Встроенный Win32-интерфейс для Win NT/2000

Выходной формат : Внутренние WAV-операцииФормат сэмплов : 44.100 Гц; 16 бит; стерео

TOC извлечённого CD

Трек | Старт | Длительность | Начальный сектор | Конечный сектор --------------------------------------------------------------------- 1 | 0:00.00 | 3:41.37 | 0 | 16611 2 | 3:41.37 | 4:33.05 | 16612 | 37091 3 | 8:14.42 | 8:05.73 | 37092 | 73539 4 | 16:20.40 | 4:41.02 | 73540 | 94616 5 | 21:01.42 | 5:30.33 | 94617 | 119399 6 | 26:32.00 | 8:14.50 | 119400 | 156499 7 | 34:46.50 | 5:34.52 | 156500 | 181601 8 | 40:21.27 | 7:24.28 | 181602 | 214929 9 | 47:45.55 | 3:28.55 | 214930 | 230584 10 | 51:14.35 | 4:23.22 | 230585 | 250331 11 | 55:37.57 | 6:25.60 | 250332 | 279266 12 | 62:03.42 | 5:07.53 | 279267 | 302344 13 | 67:11.20 | 6:21.55 | 302345 | 330974

Характеристики диапазона извлечения и сообщения об ошибках

Выбранный диапазон

Имя файла I:\Eric Clapton - The Very Best - Blues And Ballads.wav

Пиковый уровень 100.0 % Качество диапазона 100.0 % CRC теста 12DC539E CRC копии 12DC539E Копирование... OK

Ошибок не произошло

AccurateRip: сводка

Трек 1 точное извлечение (доверие 7) [DED7C020]Трек 2 точное извлечение (доверие 6) [511DED3C]Трек 3 точное извлечение (доверие 6) [F9EED37C]Трек 4 точное извлечение (доверие 7) [A74B1846]Трек 5 точное извлечение (доверие 7) [54DBF6A4]Трек 6 точное извлечение (доверие 8) [275097C5]Трек 7 точное извлечение (доверие 7) [4300E29D]Трек 8 точное извлечение (доверие 7) [015C697F]Трек 9 точное извлечение (доверие 7) [F4808217]Трек 10 точное извлечение (доверие 6) [4BFAB967]Трек 11 точное извлечение (доверие 7) [6DC26FBD]Трек 12 точное извлечение (доверие 7) [A23E42DB]Трек 13 точное извлечение (доверие 7) [FA63ED6D]

Все треки извлечены точно

Конец отчёта


Трекер:  [ 09-Янв-2013 17:07 ]

  

Скачать .torrent

Размер .torrent файла 17 KB


Размер: 419 MB
Хэш (hash) релиза: ae2527cdec471c8f79c5f79d47248655e2b5c733

Еще никто не оставлял запись к записи скачать торрент Eric Clapton - The Very Best: Blues And Ballads - 1994 . Будь первым!

!Обратная связь