Скачать через торрент музыку John Lennon - Live in New York city - 1986, FLAC бесплатно без регистрации torrent

Если у вас наблюдаются проблемы со скриншотами, переходом по ссылками, скачиванием торрентов - проблемы в блокировщике рекламы AdBlock. #хорошегоДня!


Статистика раздачи
Размер:  272 MB   |    Зарегистрирован:  4 года 7 месяцев   |    .torrent скачан:  18 раз   |   
Раздают:  1  
   
Загрузка...
 
Автор Сообщение

L


John Lennon / Live in New York city

Жанр: rock
Страна-производитель диска: US
Год издания: 1986
Издатель (лейбл): Capitol
Номер по каталогу: cdp 7 46196 2
Страна: UK
Аудиокодек: FLAC (*.flac)
Тип рипа: tracks
Битрейт аудио: lossless
Продолжительность: 42:17.627 (111 909 336 samples)
Источник (релизер): <a href="https://what.cd/torrents.php?id=41583&torrentid=806004#torrent806004" class="postLink">https://what.cd/torrents.php?id=41583&torrentid...806004</a>
Наличие сканов в содержимом раздачи: да
Треклист:
1 New York City 3:38
2 It's So Hard 3:18
3 Woman Is The Nigger Of The World 5:30
4 Well, Well, Well 3:50
5 Instant Karma (We All Shine On) 3:40
6 Mother 4:59
7 Come Together 4:20
8 Imagine 3:17
9 Cold Turkey 5:29
10 Hound Dog 3:10
11 Give Peace A Chance 0:59
EAC extraction logfile from 17. September 2007, 23:32 for CDJohn Lennon / Live In New York City

Used drive : SONY DVD-ROM DDU1615 Adapter: 1 ID: 1Read mode : Secure with NO C2, accurate stream, disable cacheRead offset correction : 6Overread into Lead-In and Lead-Out : No

Used output format : Internal WAV Routines 44.100 Hz; 16 Bit; Stereo

Other options : Fill up missing offset samples with silence : Yes Delete leading and trailing silent blocks : No Installed external ASPI interface

Track 1 Filename F:\John Lennon - Live In New York City [1986 - FLAC]\01 - New York City.wav

Pre-gap length 0:00:02.00

Peak level 78.4 % Track quality 100.0 % Test CRC 386DDA9E Copy CRC 386DDA9E Copy OK

Track 2 Filename F:\John Lennon - Live In New York City [1986 - FLAC]\02 - It's So Hard.wav

Peak level 76.2 % Track quality 100.0 % Test CRC D236DEF6 Copy CRC D236DEF6 Copy OK

Track 3 Filename F:\John Lennon - Live In New York City [1986 - FLAC]\03 - Woman Is The Nigger Of The World.wav

Peak level 76.0 % Track quality 100.0 % Test CRC DD9FA6D2 Copy CRC DD9FA6D2 Copy OK

Track 4 Filename F:\John Lennon - Live In New York City [1986 - FLAC]\04 - Well, Well, Well.wav

Peak level 75.5 % Track quality 100.0 % Test CRC F6D0E72B Copy CRC F6D0E72B Copy OK

Track 5 Filename F:\John Lennon - Live In New York City [1986 - FLAC]\05 - Instant Karma.wav

Peak level 68.8 % Track quality 99.9 % Test CRC 4599DAF4 Copy CRC 4599DAF4 Copy OK

Track 6 Filename F:\John Lennon - Live In New York City [1986 - FLAC]\06 - Mother.wav

Peak level 79.3 % Track quality 100.0 % Test CRC E6A75A6F Copy CRC E6A75A6F Copy OK

Track 7 Filename F:\John Lennon - Live In New York City [1986 - FLAC]\07 - Come Together.wav

Peak level 71.9 % Track quality 100.0 % Test CRC F1C0D626 Copy CRC F1C0D626 Copy OK

Track 8 Filename F:\John Lennon - Live In New York City [1986 - FLAC]\08 - Imagine.wav

Peak level 80.7 % Track quality 100.0 % Test CRC 5C2AB248 Copy CRC 5C2AB248 Copy OK

Track 9 Filename F:\John Lennon - Live In New York City [1986 - FLAC]\09 - Cold Turkey.wav

Pre-gap length 0:00:00.01

Peak level 73.8 % Track quality 99.9 % Test CRC 31F9F283 Copy CRC 31F9F283 Copy OK

Track 10 Filename F:\John Lennon - Live In New York City [1986 - FLAC]\10 - Hound Dog.wav

Peak level 73.2 % Track quality 100.0 % Test CRC 365607BC Copy CRC 365607BC Copy OK

Track 11 Filename F:\John Lennon - Live In New York City [1986 - FLAC]\11 - Give Peace A Chance.wav

Peak level 49.8 % Track quality 99.8 % Test CRC 33249223 Copy CRC 33249223 Copy OK

No errors occured

End of status report
rem genre rockrem date 1986rem discid 8109e90bperformer "John Lennon"title "Live in New York city"file "01 - new york city.wav" wavetrack 01 audiotitle "New York city"index 01 00:00:00file "02 - its so hard.wav" wavetrack 02 audiotitle "It's so hard"index 01 00:00:00file "03 - woman is the nigger of the world.wav" wavetrack 03 audiotitle "Woman is the nigger of the world"index 01 00:00:00file "04 - well,well,well.wav" wavetrack 04 audiotitle "Well, well, well"index 01 00:00:00file "05 - instant karma.wav" wavetrack 05 audiotitle "Instant karma"index 01 00:00:00file "06 - mother.wav" wavetrack 06 audiotitle "Mother"index 01 00:00:00file "07 - come together.wav" wavetrack 07 audiotitle "Come together"index 01 00:00:00file "08 - imagine.wav" wavetrack 08 audiotitle "Imagine"index 01 00:00:00track 09 audiotitle "Cold turkey"index 00 03:17:29file "09 - cold turkey.wav" waveindex 01 00:00:00file "10 - hound dog.wav" wavetrack 10 audiotitle "Hound dog"index 01 00:00:00file "11 - give peace a chance.wav" wavetrack 11 audiotitle "Give peace a chance"index 01 00:00:00
Доп. информация: http://www.discogs.com/John-Lennon-Live-In-New-York-City/release/2601212

Трекер:  [ 09-Янв-2013 12:19 ]

  

Скачать .torrent

Размер .torrent файла 12 KB


Размер: 272 MB
Хэш (hash) релиза: 0ace30d47b77008ddab1e0fcf46cba0a8e7b0b5d

Еще никто не оставлял запись к записи скачать торрент John Lennon - Live in New York city - 1986, FLAC . Будь первым!

!Обратная связь