Скачать через торрент музыку Kalevala - Abrahams Blue Refrain - 1977, FLAC бесплатно без регистрации torrent

Если у вас наблюдаются проблемы со скриншотами, переходом по ссылками, скачиванием торрентов - проблемы в блокировщике рекламы AdBlock. #хорошегоДня!


Статистика раздачи
Размер:  250 MB   |    Зарегистрирован:  4 года 10 месяцев   |    .torrent скачан:  20 раз   |   
Раздают:  1  
   
Загрузка...
 
Автор Сообщение

L


Kalevala / Abraham's Blue Refrain

Жанр: Progressive/ Folk
Страна-производитель диска: Finland
Год издания: 2010
Издатель (лейбл): Rocket
Номер по каталогу: ROK 065
Страна: Finland
Аудиокодек: FLAC (*.flac)
Тип рипа: image+.cue
Битрейт аудио: lossless
Продолжительность: 35:24
Источник (релизер): AG collection
Наличие сканов в содержимом раздачи: да

Треклист:
1. Silver Fish
2. Lighthouse
3. Forever Train
4. Abraham's Blue Refrain (Parts I & II)
5. Brown'll Might Suit You
6. Highland Temple
7. Playground
8. Marketbox Street
9. Panamanian Red
Exact Audio Copy V1.0 beta 3 from 29. August 2011

EAC extraction logfile from 28. December 2012, 9:42

Kalevala / Abraham's Blue Refrain

Used drive : hp DVD-RAM GH60L Adapter: 0 ID: 0

Read mode : SecureUtilize accurate stream : YesDefeat audio cache : YesMake use of C2 pointers : No

Read offset correction : 667Overread into Lead-In and Lead-Out : NoFill up missing offset samples with silence : YesDelete leading and trailing silent blocks : NoNull samples used in CRC calculations : YesUsed interface : Native Win32 interface for Win NT & 2000

Used output format : User Defined EncoderSelected bitrate : 768 kBit/sQuality : HighAdd ID3 tag : YesCommand line compressor : C:\Program Files (x86)\Exact Audio Copy\FLAC\FLAC.EXEAdditional command line options : -6 -V -T "ARTIST=%artist%" -T "TITLE=%title%" -T "ALBUM=%albumtitle%" -T "DATE=%year%" -T "TRACKNUMBER=%tracknr%" -T "GENRE=%genre%" -T "COMMENT=%comment%" -T "BAND=%albuminterpret%" -T "ALBUMARTIST=%albuminterpret%" -T "COMPOSER=%composer%" %haslyrics%--tag-from-file=LYRICS="%lyricsfile%"%haslyrics% -T "DISCNUMBER=%cdnumber%" -T "TOTALDISCS=%totalcds%" -T "TOTALTRACKS=%numtracks%" %hascover%--picture="%coverfile%"%hascover% %source% -o %dest%

TOC of the extracted CD

Track | Start | Length | Start sector | End sector --------------------------------------------------------- 1 | 0:00.00 | 3:32.63 | 0 | 15962 2 | 3:32.63 | 4:02.44 | 15963 | 34156 3 | 7:35.32 | 3:27.74 | 34157 | 49755 4 | 11:03.31 | 6:43.70 | 49756 | 80050 5 | 17:47.26 | 2:42.61 | 80051 | 92261 6 | 20:30.12 | 3:49.32 | 92262 | 109468 7 | 24:19.44 | 3:08.25 | 109469 | 123593 8 | 27:27.69 | 3:09.19 | 123594 | 137787 9 | 30:37.13 | 5:08.29 | 137788 | 160916

Range status and errors

Selected range

Filename C:\alex gitlin\Kalevala - Abraham's Blue Refrain.wav

Peak level 97.7 % Extraction speed 2.9 X Range quality 100.0 % Copy CRC 7E46E89E Copy OK

No errors occurred

End of status report
Прогрессивная сцена Финляндии начала 70х годов не была богата на имена и события. Когда же вспыхивали редкие звезды, горели они не долго, но ярко. KALEVALA - одна из таких подзабытых легенд, легенд, чье музыкальное наследие заслуживает лучшей части, нежели забвение.
Группу собрал в конце 1969 года басист Juha «Lido» Salonen. Первоначально команда называлась VIETNAM, но во время одного из концертных выступления организаторы потребовали его изменить. Так появилась KALEVALA (что в переводе «земля Kale»), название, почерпнутое из сборника национальных легенд о герое по имени Kale. Музыканты сразу подчеркнули близость народным традициям.
Первые несколько лет состав не отличался стабильностью, в разное время там играли Albert Jarvinen - guitar, Remu Aaltonen - drums. Музыка представляла собой прогрессивный рок, с обилием агрессивной гитары. Появление в группе гитариста и композитора (автор всех песен на первой пластинке) Matti Kurkinen серьезно усилило позиции KALEVALA на местной сцене. Дебютный альбом, записанный в начале 72 года, явил слушателям настоящий шедевр. «People no names» продемонстрировал органичный сплав фолковых мотивов (Waves, Tamed Indians) с более динамичным и жестким материалом. Подлинными жемчужинами получились заглавная композиция, с невероятными переходами из «хардового забоя» в меланхоличную отстраненность, и инструментальная пьеса Escape from the storm. «Побег…» поражает не только оригинальной мелодией, но и гениальной гитарной партией Куркинена. Нельзя не отметить голос Harri Saksala, довольно необычный, но притягивающий с каждой минутой все больше. Если проводить аналогии, то можно вспомнить FOCUS и более близких по стилю норвежцев KEBNEKAJSE (хотя KALEVALA не столь хард-рок ориентированы, как последние).
Полное равнодушие со стороны слушателей привело к скорому распаду группы. Единственный из участников, который проявил наибольшую музыкальную активность, оказался Харри. Опыт работы еще до KALEVALA с такими группами как TOPMOST, SOULSET, APOLLO помогли ему устроиться с начала в PUNAISE LANGA, а затем в MANIFEST. В последней также играли Hasse Walli - guitar и Jukka Linkola - keyboards.
В 1974 году Салонен и Куркинен реформируют команду, в полностью обновленном составе. Кроме этой пары гитаристов (Салонен переключился с бас-гитары на лидирующую, таким образом, создав с Киркиненом великолепный тандем) появились - Limousine Leppanen - vocal, Ari Vaahtera - bass, Beaver Aitto-Oja - drums. Записанная в 75м пластинка «Boogie jungle» получилась много слабее предшественника. Вместо оригинального замеса из прога и фолка, музыканты представили на суд слушателей типичный для своего времени хард. Довольно изысканный, драйвовый, но малоинтересный. Тем не менее, участие в записи двух ветеранов еще одной легендарной финской группы WIGWAM - Jukka Gustavson, Jim Pembroke - привело к большему вниманию со стороны слушателей. Так и хочется сказать, «где же вы были в 72м, когда записывался настоящий шедевр?».
Следующие пару лет музыканты KALEVALA продолжали гастролировать (иногда выступая под названием KALEVALA ORCHESTRA), в 77м выпустили новый диск («Abraham’s blue refrain») и вскоре после этого распались. Последние годы жизни группы практически не освещены в рок энциклопедиях. Да и музыку, надо полагать, они играли уже совсем иную, нежели в молодые годы. Стоит добавить, что буквально перед записью третьего диска группы Куркинен трагически погиб в автомобильной катастрофе, поэтому все гитарные партии на «Abraham’s blue refrain» принадлежат Салонену.

Источник: lastfm.ru
- Juha Salonen / guitar, keyboards
- "Limousine" Leppanen / vocals, percussion
- Ari Vaahtera / bass guitar
- "Beaver" Aitto-Oja / drums
- Jim Pembroke / backing vocals, piano (4), lyrics


Трекер:  [ 09-Янв-2013 11:22 ]

  

Скачать .torrent

Размер .torrent файла 20 KB


Размер: 250 MB
Хэш (hash) релиза: b2e144329a0395db7353bd0ca8df582bc7b48516

Еще никто не оставлял запись к записи скачать торрент Kalevala - Abrahams Blue Refrain - 1977, FLAC . Будь первым!

!Обратная связь