Скачать через торрент музыку The Stargazers - Give Me That Jive бесплатно без регистрации torrent

Если у вас наблюдаются проблемы со скриншотами, переходом по ссылками, скачиванием торрентов - проблемы в блокировщике рекламы AdBlock. #хорошегоДня!


Статистика раздачи
Размер:  258 MB   |    Зарегистрирован:  4 года 10 месяцев   |    .torrent скачан:  19 раз   |   
Раздают:  1  
   
Загрузка...
 
Автор Сообщение

L


The Stargazers / Give Me That Jive (The '94 sessions)

Жанр: Jump Jive
Страна-производитель диска: England
Год издания: 1999
Издатель (лейбл): Vinyl Japan
Номер по каталогу: JRCD37
Страна: England
Аудиокодек: FLAC (*.flac)
Тип рипа: image+.cue
Битрейт аудио: lossless
Продолжительность: 45:05
Источник (релизер): AUDELAS KINGDOM
Наличие сканов в содержимом раздачи: да

01. L.O.V.E
02. (Let Me Be) Your Dream Come True
03. Got To Tell You
04. Spitfire
05. Haunting Me
06. The Caress
07. Let's Go Rockin 'n' Rollin'
08. C.K.Rock
09. Love Alphabet
10. Wonderful You
11. Swingin' On A Star
12. You Never Came To Call
13. Give Me That Jive
Exact Audio Copy V1.0 beta 2 from 29. April 2011

Отчёт EAC об извлечении, выполненном 8. января 2013, 21:21

The Stargazers / Give Me That Jive - The '94 sessions

Дисковод: ATAPI iHAS124 B Adapter: 1 ID: 1

Режим чтения : ДостоверностьИспользование точного потока : ДаОтключение кэша аудио : ДаИспользование указателей C2 : Нет

Коррекция смещения при чтении : 6Способность читать области Lead-in и Lead-out : НетЗаполнение пропущенных сэмплов тишиной : ДаУдаление блоков с тишиной в начале и конце : НетПри вычислениях CRC использовались нулевые сэмплы : ДаИнтерфейс : Встроенный Win32-интерфейс для Win NT/2000

Выходной формат : Пользовательский кодировщикВыбранный битрейт : 1024 kBit/sКачество : ВысокийДобавление ID3-тега : НетУтилита сжатия : C:\Program Files\Exact Audio Copy\FLAC\FLAC.EXEДополнительные параметры : -6 -V -T "ARTIST=%artist%" -T "TITLE=%title%" -T "ALBUM=%albumtitle%" -T "DATE=%year%" -T "TRACKNUMBER=%tracknr%" -T "GENRE=%genre%" -T "COMMENT=%comment%" -T "BAND=%albuminterpret%" -T "COMPOSER=%composer%" %haslyrics%--tag-from-

TOC извлечённого CD

Трек | Старт | Длительность | Начальный сектор | Конечный сектор --------------------------------------------------------------------- 1 | 0:00.00 | 2:55.62 | 0 | 13186 2 | 2:55.62 | 3:33.23 | 13187 | 29184 3 | 6:29.10 | 3:15.10 | 29185 | 43819 4 | 9:44.20 | 3:22.57 | 43820 | 59026 5 | 13:07.02 | 3:20.70 | 59027 | 74096 6 | 16:27.72 | 3:31.65 | 74097 | 89986 7 | 19:59.62 | 2:19.03 | 89987 | 100414 8 | 22:18.65 | 2:54.07 | 100415 | 113471 9 | 25:12.72 | 2:08.73 | 113472 | 123144 10 | 27:21.70 | 2:47.25 | 123145 | 135694 11 | 30:09.20 | 2:48.25 | 135695 | 148319 12 | 32:57.45 | 3:42.30 | 148320 | 164999 13 | 36:40.00 | 3:53.34 | 165000 | 182508

Характеристики диапазона извлечения и сообщения об ошибках

Выбранный диапазон

Имя файла D:\Muzika\The Stargazers - Give Me That Jive (The '94 sessions) (1999)\The Stargazers - Give Me That Jive - The '94 sessions.wav

Пиковый уровень 98.8 % Скорость извлечения 7.9 X Качество диапазона 100.0 % CRC теста D1F36582 CRC копии D1F36582 Копирование... OK

Ошибок не произошло

AccurateRip: сводка

Трек 1 отсутствует в базе данныхТрек 2 отсутствует в базе данныхТрек 3 отсутствует в базе данныхТрек 4 отсутствует в базе данныхТрек 5 отсутствует в базе данныхТрек 6 отсутствует в базе данныхТрек 7 отсутствует в базе данныхТрек 8 отсутствует в базе данныхТрек 9 отсутствует в базе данныхТрек 10 отсутствует в базе данныхТрек 11 отсутствует в базе данныхТрек 12 отсутствует в базе данныхТрек 13 отсутствует в базе данных

Ни одного трека нет в базе AccurateRip

Конец отчёта

==== Контрольная сумма отчёта 07F54AEC031BB72EFB350B5BBE90E339660B5DB1459476F387F4D21E1CFFE738 ====


Трекер:  [ 09-Янв-2013 11:21 ]

  

Скачать .torrent

Размер .torrent файла 11 KB


Размер: 258 MB
Хэш (hash) релиза: b52f55bc607eea10016e4612fed5be0b58ce1602

Еще никто не оставлял запись к записи скачать торрент The Stargazers - Give Me That Jive . Будь первым!

!Обратная связь