Скачать через торрент музыку Perfect - Katowice Spodek Live 94 - 2003, FLAC бесплатно без регистрации torrent

Если у вас наблюдаются проблемы со скриншотами, переходом по ссылками, скачиванием торрентов - проблемы в блокировщике рекламы AdBlock. #хорошегоДня!


Статистика раздачи
Размер:  702 MB   |    Зарегистрирован:  4 года 7 месяцев   |    .torrent скачан:  19 раз   |   
Раздают:  1  
   
Загрузка...
 
Автор Сообщение

L


Perfect (Poland) / Katowice Spodek Live' 94

Жанр: East Rock, Hard Rock
Страна-производитель диска: Poland
Год издания: 2003 (1994)
Издатель (лейбл): Art-Studio Camer-Ton
Страна: Poland
Аудиокодек: FLAC (*.flac)
Тип рипа: tracks+.cue
Битрейт аудио: lossless
Продолжительность: 00:45:49 + 00:55:30
Источник (релизер): Польский треккер - спасибо rajkad
Наличие сканов в содержимом раздачи: нет
Треклист:
01. Jeszcze nie umarłem 3:39
02. Pocztówka dla państwa Jareckich 5:06
03. Bażancie życie 4:17
04. Lokomotywa z ogłoszenia 3:52
05. Pepe wróć 6:29
06. Nasza muzyka wzbudza strach 3:55
07. Ale w koło jest wesoło 3:48
08. Bla, bla, bla 3:01
09. Po co? 3:31
10. Idź precz 3:20
11. Widzisz Panie 4:45
01. Wieczorny przegląd moich myśli 4:59
02. Czytanka dla Janka 4:17
03. Żywy stąd nie wyjdzie nikt 4:35
04. Nieme kino 6:49
05. Opanuj się 3:46
06. Niewiele Ci mogę dać 3:50
07. Wyspa, drzewo, zamek 3:22
08. Nie igraj ze mną kiedy gram 5:33
09. Autobiografia 4:06
10. A kysz biała mysz 8:34
11. Chcemy być sobą 5:34
Exact Audio Copy V0.99 prebeta 5 from 4. May 2009

EAC extraction logfile from 11. December 2009, 21:51

Perfect / Katowice Spodek Live '94 cd 1

Used drive : LITEON CD-ROM LTN526 Adapter: 1 ID: 1

Read mode : Secure
Utilize accurate stream : Yes
Defeat audio cache : Yes
Make use of C2 pointers : No

Read offset correction : 600
Overread into Lead-In and Lead-Out : No
Fill up missing offset samples with silence : Yes
Delete leading and trailing silent blocks : No
Null samples used in CRC calculations : Yes
Used interface : Installed external ASPI interface
Gap handling : Appended to previous track

Used output format : User Defined Encoder
Selected bitrate : 1024 kBit/s
Quality : High
Add ID3 tag : Yes
Command line compressor : C:\Program Files\Exact Audio Copy\Flac\flac.exe
Additional command line options : -8 -T "artist=%a" -T "title=%t" -T "album=%g" -T "date=%y" -T "tracknumber=%n" -T "genre=%m" %s

TOC of the extracted CD

Track | Start | Length | Start sector | End sector
---------------------------------------------------------
1 | 0:00.00 | 3:39.54 | 0 | 16478
2 | 3:39.54 | 5:06.22 | 16479 | 39450
3 | 8:46.01 | 4:17.28 | 39451 | 58753
4 | 13:03.29 | 3:52.27 | 58754 | 76180
5 | 16:55.56 | 6:29.12 | 76181 | 105367
6 | 23:24.68 | 3:55.73 | 105368 | 123065
7 | 27:20.66 | 3:48.42 | 123066 | 140207
8 | 31:09.33 | 3:01.66 | 140208 | 153848
9 | 34:11.24 | 3:31.48 | 153849 | 169721
10 | 37:42.72 | 3:20.65 | 169722 | 184786
11 | 41:03.62 | 4:45.42 | 184787 | 206203

Track 1

Filename E:\Z Audio\EAC\Perfect - Katowice Spodek Live '94\CD 1\01 - Jeszcze nie umarłem.wav

Pre-gap length 0:00:02.00

Peak level 98.9 %
Track quality 100.0 %
Test CRC F6983AE4
Copy CRC F6983AE4
Cannot be verified as accurate (confidence 1) [CC3678C1], AccurateRip returned [10B7D1EC]
Copy OK

Track 2

Filename E:\Z Audio\EAC\Perfect - Katowice Spodek Live '94\CD 1\02 - Pocztówka dla państwa Jareckich.wav

Peak level 98.9 %
Track quality 100.0 %
Test CRC 1D396B51
Copy CRC 1D396B51
Cannot be verified as accurate (confidence 1) [1719C8BA], AccurateRip returned [5D1D915B]
Copy OK

Track 3

Filename E:\Z Audio\EAC\Perfect - Katowice Spodek Live '94\CD 1\03 - Bażancie życie.wav

Peak level 98.9 %
Track quality 99.9 %
Test CRC 99627588
Copy CRC 99627588
Cannot be verified as accurate (confidence 1) [5D01F23A], AccurateRip returned [785FD2D0]
Copy OK

Track 4

Filename E:\Z Audio\EAC\Perfect - Katowice Spodek Live '94\CD 1\04 - Lokomotywa z ogłoszenia.wav

Peak level 98.9 %
Track quality 100.0 %
Test CRC B69030FE
Copy CRC B69030FE
Cannot be verified as accurate (confidence 1) [10FF8976], AccurateRip returned [50C1FFA6]
Copy OK

Track 5

Filename E:\Z Audio\EAC\Perfect - Katowice Spodek Live '94\CD 1\05 - Pepe wróć.wav

Peak level 98.9 %
Track quality 99.9 %
Test CRC E00D80FF
Copy CRC E00D80FF
Cannot be verified as accurate (confidence 1) [EFC0A6E3], AccurateRip returned [23364726]
Copy OK

Track 6

Filename E:\Z Audio\EAC\Perfect - Katowice Spodek Live '94\CD 1\06 - Nasza muzyka wzbudza strach.wav

Peak level 98.9 %
Track quality 100.0 %
Test CRC 165F3326
Copy CRC 165F3326
Cannot be verified as accurate (confidence 1) [1658714D], AccurateRip returned [64765D7E]
Copy OK

Track 7

Filename E:\Z Audio\EAC\Perfect - Katowice Spodek Live '94\CD 1\07 - Ale w koło jest wesoło.wav

Peak level 98.9 %
Track quality 100.0 %
Test CRC BE031950
Copy CRC BE031950
Cannot be verified as accurate (confidence 1) [76DFA326], AccurateRip returned [43F9AE0A]
Copy OK

Track 8

Filename E:\Z Audio\EAC\Perfect - Katowice Spodek Live '94\CD 1\08 - Bla, bla, bla.wav

Peak level 98.9 %
Track quality 100.0 %
Test CRC A4250266
Copy CRC A4250266
Cannot be verified as accurate (confidence 1) [4E8D02B3], AccurateRip returned [88A0EBD9]
Copy OK

Track 9

Filename E:\Z Audio\EAC\Perfect - Katowice Spodek Live '94\CD 1\09 - Po co .wav

Peak level 98.9 %
Track quality 100.0 %
Test CRC 1A665CFD
Copy CRC 1A665CFD
Cannot be verified as accurate (confidence 1) [FA597E5B], AccurateRip returned [96C0567A]
Copy OK

Track 10

Filename E:\Z Audio\EAC\Perfect - Katowice Spodek Live '94\CD 1\10 - Idź precz.wav

Peak level 98.9 %
Track quality 100.0 %
Test CRC AAFADEFA
Copy CRC AAFADEFA
Cannot be verified as accurate (confidence 1) [10C80EA4], AccurateRip returned [30D19DD3]
Copy OK

Track 11

Filename E:\Z Audio\EAC\Perfect - Katowice Spodek Live '94\CD 1\11 - Widzisz Panie.wav

Peak level 98.8 %
Track quality 100.0 %
Test CRC 16CF518F
Copy CRC 16CF518F
Cannot be verified as accurate (confidence 1) [7EACAEF1], AccurateRip returned [C6BE39B1]
Copy OK

No tracks could be verified as accurate
You may have a different pressing from the one(s) in the database

No errors occurred

End of status report
Exact Audio Copy V0.99 prebeta 5 from 4. May 2009

EAC extraction logfile from 11. December 2009, 23:02

Perfect / Katowice Spodek Live '94 cd 2

Used drive : LITE-ON DVDRW SOHW-1633S Adapter: 1 ID: 0

Read mode : Secure
Utilize accurate stream : Yes
Defeat audio cache : Yes
Make use of C2 pointers : No

Read offset correction : 12
Overread into Lead-In and Lead-Out : No
Fill up missing offset samples with silence : Yes
Delete leading and trailing silent blocks : No
Null samples used in CRC calculations : Yes
Used interface : Installed external ASPI interface
Gap handling : Appended to previous track

Used output format : User Defined Encoder
Selected bitrate : 1024 kBit/s
Quality : High
Add ID3 tag : Yes
Command line compressor : C:\Program Files\Exact Audio Copy\Flac\flac.exe
Additional command line options : -8 -T "artist=%a" -T "title=%t" -T "album=%g" -T "date=%y" -T "tracknumber=%n" -T "genre=%m" %s

TOC of the extracted CD

Track | Start | Length | Start sector | End sector
---------------------------------------------------------
1 | 0:00.00 | 4:59.23 | 0 | 22447
2 | 4:59.23 | 4:17.09 | 22448 | 41731
3 | 9:16.32 | 4:35.65 | 41732 | 62421
4 | 13:52.22 | 6:49.47 | 62422 | 93143
5 | 20:41.69 | 3:46.19 | 93144 | 110112
6 | 24:28.13 | 3:50.11 | 110113 | 127373
7 | 28:18.24 | 3:22.00 | 127374 | 142523
8 | 31:40.24 | 5:33.47 | 142524 | 167545
9 | 37:13.71 | 4:06.73 | 167546 | 186068
10 | 41:20.69 | 8:34.72 | 186069 | 224690
11 | 49:55.66 | 5:34.15 | 224691 | 249755

Track 1

Filename E:\Z Audio\EAC\Perfect - Katowice Spodek Live '94\CD 2\01 - Wieczorny przegląd moich myśli.wav

Pre-gap length 0:00:02.00

Peak level 98.8 %
Track quality 100.0 %
Test CRC 2DB883C2
Copy CRC 2DB883C2
Cannot be verified as accurate (confidence 1) [0C817793], AccurateRip returned [24D0311B]
Copy OK

Track 2

Filename E:\Z Audio\EAC\Perfect - Katowice Spodek Live '94\CD 2\02 - Czytanka dla Janka.wav

Peak level 98.8 %
Track quality 100.0 %
Test CRC 1980BBB9
Copy CRC 1980BBB9
Cannot be verified as accurate (confidence 1) [EDC23978], AccurateRip returned [19F4E1D4]
Copy OK

Track 3

Filename E:\Z Audio\EAC\Perfect - Katowice Spodek Live '94\CD 2\03 - Żywy stąd nie wyjdzie nikt.wav

Peak level 98.8 %
Track quality 100.0 %
Test CRC DD3CF2D9
Copy CRC DD3CF2D9
Cannot be verified as accurate (confidence 1) [4F27EB77], AccurateRip returned [A115FC58]
Copy OK

Track 4

Filename E:\Z Audio\EAC\Perfect - Katowice Spodek Live '94\CD 2\04 - Nieme kino.wav

Peak level 98.9 %
Track quality 100.0 %
Test CRC C444BC84
Copy CRC C444BC84
Cannot be verified as accurate (confidence 1) [7C7CE225], AccurateRip returned [C67C6136]
Copy OK

Track 5

Filename E:\Z Audio\EAC\Perfect - Katowice Spodek Live '94\CD 2\05 - Opanuj się.wav

Peak level 98.9 %
Track quality 100.0 %
Test CRC 1388B08B
Copy CRC 1388B08B
Cannot be verified as accurate (confidence 1) [106B18BC], AccurateRip returned [D88E541B]
Copy OK

Track 6

Filename E:\Z Audio\EAC\Perfect - Katowice Spodek Live '94\CD 2\06 - Niewiele Ci mogę dać.wav

Peak level 98.8 %
Track quality 100.0 %
Test CRC 7D2CA928
Copy CRC 7D2CA928
Cannot be verified as accurate (confidence 1) [2E78EAFB], AccurateRip returned [6ECC898F]
Copy OK

Track 7

Filename E:\Z Audio\EAC\Perfect - Katowice Spodek Live '94\CD 2\07 - Wyspa, drzewo, zamek.wav

Peak level 98.8 %
Track quality 100.0 %
Test CRC EF90AA0D
Copy CRC EF90AA0D
Cannot be verified as accurate (confidence 1) [057E4A69], AccurateRip returned [78E2B6D2]
Copy OK

Track 8

Filename E:\Z Audio\EAC\Perfect - Katowice Spodek Live '94\CD 2\08 - Nie igraj ze mną kiedy gram.wav

Peak level 98.9 %
Track quality 100.0 %
Test CRC F69E86DF
Copy CRC F69E86DF
Cannot be verified as accurate (confidence 1) [BB5428A9], AccurateRip returned [8AABAAF9]
Copy OK

Track 9

Filename E:\Z Audio\EAC\Perfect - Katowice Spodek Live '94\CD 2\09 - Autobiografia.wav

Peak level 98.9 %
Track quality 100.0 %
Test CRC E7FE1B3B
Copy CRC E7FE1B3B
Cannot be verified as accurate (confidence 1) [B4503F63], AccurateRip returned [879F78CA]
Copy OK

Track 10

Filename E:\Z Audio\EAC\Perfect - Katowice Spodek Live '94\CD 2\10 - A kysz biała mysz.wav

Peak level 98.9 %
Track quality 100.0 %
Test CRC C451A6AD
Copy CRC C451A6AD
Cannot be verified as accurate (confidence 1) [FB1AA4C6], AccurateRip returned [59C30BAE]
Copy OK

Track 11

Filename E:\Z Audio\EAC\Perfect - Katowice Spodek Live '94\CD 2\11 - Chcemy być sobą.wav

Peak level 98.9 %
Track quality 100.0 %
Test CRC DAF357AC
Copy CRC DAF357AC
Cannot be verified as accurate (confidence 1) [44E9AD83], AccurateRip returned [BCF05D84]
Copy OK

No tracks could be verified as accurate
You may have a different pressing from the one(s) in the database

No errors occurred

End of status report
REM GENRE Rock
REM DATE 1994
REM DISCID 850ABD0B
REM COMMENT "ExactAudioCopy v0.99pb5"
PERFORMER "Perfect"
TITLE "Katowice Spodek Live '94 cd 1"
FILE "01 - Jeszcze nie umarłem.wav" WAVE
TRACK 01 AUDIO
TITLE "Jeszcze nie umarłem"
PERFORMER "Perfect"
INDEX 01 00:00:00
FILE "02 - Pocztówka dla państwa Jareckich.wav" WAVE
TRACK 02 AUDIO
TITLE "Pocztówka dla państwa Jareckich"
PERFORMER "Perfect"
INDEX 01 00:00:00
FILE "03 - Bażancie życie.wav" WAVE
TRACK 03 AUDIO
TITLE "Bażancie życie"
PERFORMER "Perfect"
INDEX 01 00:00:00
FILE "04 - Lokomotywa z ogłoszenia.wav" WAVE
TRACK 04 AUDIO
TITLE "Lokomotywa z ogłoszenia"
PERFORMER "Perfect"
INDEX 01 00:00:00
FILE "05 - Pepe wróć.wav" WAVE
TRACK 05 AUDIO
TITLE "Pepe wróć"
PERFORMER "Perfect"
INDEX 01 00:00:00
FILE "06 - Nasza muzyka wzbudza strach.wav" WAVE
TRACK 06 AUDIO
TITLE "Nasza muzyka wzbudza strach"
PERFORMER "Perfect"
INDEX 01 00:00:00
FILE "07 - Ale w koło jest wesoło.wav" WAVE
TRACK 07 AUDIO
TITLE "Ale w koło jest wesoło"
PERFORMER "Perfect"
INDEX 01 00:00:00
FILE "08 - Bla, bla, bla.wav" WAVE
TRACK 08 AUDIO
TITLE "Bla, bla, bla"
PERFORMER "Perfect"
INDEX 01 00:00:00
FILE "09 - Po co .wav" WAVE
TRACK 09 AUDIO
TITLE "Po co?"
PERFORMER "Perfect"
INDEX 01 00:00:00
FILE "10 - Idź precz.wav" WAVE
TRACK 10 AUDIO
TITLE "Idź precz"
PERFORMER "Perfect"
INDEX 01 00:00:00
FILE "11 - Widzisz Panie.wav" WAVE
TRACK 11 AUDIO
TITLE "Widzisz Panie"
PERFORMER "Perfect"
INDEX 01 00:00:00
REM GENRE Rock
REM DATE 1994
REM DISCID 880D020B
REM COMMENT "ExactAudioCopy v0.99pb5"
PERFORMER "Perfect"
TITLE "Katowice Spodek Live '94 cd 2"
FILE "01 - Wieczorny przegląd moich myśli.wav" WAVE
TRACK 01 AUDIO
TITLE "Wieczorny przegląd moich myśli"
PERFORMER "Perfect"
INDEX 01 00:00:00
FILE "02 - Czytanka dla Janka.wav" WAVE
TRACK 02 AUDIO
TITLE "Czytanka dla Janka"
PERFORMER "Perfect"
INDEX 01 00:00:00
FILE "03 - Żywy stąd nie wyjdzie nikt.wav" WAVE
TRACK 03 AUDIO
TITLE "Żywy stąd nie wyjdzie nikt"
PERFORMER "Perfect"
INDEX 01 00:00:00
FILE "04 - Nieme kino.wav" WAVE
TRACK 04 AUDIO
TITLE "Nieme kino"
PERFORMER "Perfect"
INDEX 01 00:00:00
FILE "05 - Opanuj się.wav" WAVE
TRACK 05 AUDIO
TITLE "Opanuj się"
PERFORMER "Perfect"
INDEX 01 00:00:00
FILE "06 - Niewiele Ci mogę dać.wav" WAVE
TRACK 06 AUDIO
TITLE "Niewiele Ci mogę dać"
PERFORMER "Perfect"
INDEX 01 00:00:00
FILE "07 - Wyspa, drzewo, zamek.wav" WAVE
TRACK 07 AUDIO
TITLE "Wyspa, drzewo, zamek"
PERFORMER "Perfect"
INDEX 01 00:00:00
FILE "08 - Nie igraj ze mną kiedy gram.wav" WAVE
TRACK 08 AUDIO
TITLE "Nie igraj ze mną kiedy gram"
PERFORMER "Perfect"
INDEX 01 00:00:00
FILE "09 - Autobiografia.wav" WAVE
TRACK 09 AUDIO
TITLE "Autobiografia"
PERFORMER "Perfect"
INDEX 01 00:00:00
FILE "10 - A kysz biała mysz.wav" WAVE
TRACK 10 AUDIO
TITLE "A kysz biała mysz"
PERFORMER "Perfect"
INDEX 01 00:00:00
FILE "11 - Chcemy być sobą.wav" WAVE
TRACK 11 AUDIO
TITLE "Chcemy być sobą"
PERFORMER "Perfect"
INDEX 01 00:00:00
Повторное издание альбома 1994 года, выпущенного Armco Music
Grzegorz Markowski – śpiew
Andrzej Urny – gitara / śpiew
Andrzej Nowicki – gitara basowa
Piotr Szkudelski – perkusja
Ryszard Sygitowicz - gitara, gitara rytmiczna
Торрент перезалит: добавлены рабочие, пригодные для прожига CD, *.cue файлы

Трекер:  [ 08-Янв-2013 17:22 ]

  

Скачать .torrent

Размер .torrent файла 16 KB


Размер: 702 MB
Хэш (hash) релиза: cac8e819ac7dcd642c32037528e8fbb65eda4fd1

Торренты, похожие на Perfect - Katowice Spodek Live 94 - 2003, FLAC скачать торрент

Форум Название Автор Размер S L Добавлен
Зарубежный Rock ·· (East Rock, Hard Rock) Perfect - Katowice Spodek Live' 94 - 2003, FLAC (tracks+.cue), lossless Galfimbul 736259425702 MB 0 0 1355472600

11:10

14-Дек-12

Еще никто не оставлял запись к записи скачать торрент Perfect - Katowice Spodek Live 94 - 2003, FLAC . Будь первым!

!Обратная связь