Скачать через торрент Taylor Swift - Дискография iTunes Discography - 2006-2012 бесплатно русская версия torrent активатор

Если у вас наблюдаются проблемы со скриншотами, переходом по ссылками, скачиванием торрентов - проблемы в блокировщике рекламы AdBlock. #хорошегоДня!


Статистика раздачи
Размер:  5.14 GB   |    Зарегистрирован:  4 года 9 месяцев   |    .torrent скачан:  52 раза   |   
Раздают:  1  
   
Загрузка...
 
Автор Сообщение

L


Taylor Swift - iTunes Discography

Жанр: Country, Pop || Страна: USA || Год издания: 2006-2012 || Издатель (лейбл): Big Machine Records || Аудио кодек: AAC ||Тип рипа: tracks
Битрейт аудио: 256 kbps || Продолжительность: 17:10:20 || Источник: <a href="https://itunes.apple.com/us/artist/taylor-swift/id159260351" class="postLink">iTunes Store</a> || Вшитые тексты: добавленыAlbums
Год издания: 24.10.2006
Продолжительность: 00:53:28
Источник: <a href="https://itunes.apple.com/us/album/taylor-swift-bonus-track-version/id275621626" class="postLink">iTunes Store</a>
Наличие сканов в содержимом раздачи: Digital Booklet

Треклист:
01. Tim McGraw (03:52)
02. Picture To Burn (02:55)
03. Teardrops On My Guitar [Radio Single Edit] (03:23)
04. A Place In This World (03:19)
05. Cold As You (03:59)
06. The Outside (03:27)
07. Tied Together With A Smile (04:08)
08. Stay Beautiful (03:56)
09. Should've Said No (04:02)
10. Mary's Song [Oh My My My] (03:33)
11. Our Song (03:21)
12. I'm Only Me When I'm With You (03:33)
13. Invisible (03:23)
14. A Perfectly Good Heart (03:40)
15. Teardrops On My Guitar [Pop Version] (02:59)
Год издания: 10.03.2009
Продолжительность: 01:08:18
Источник: <a href="https://itunes.apple.com/gb/album/fearless/id305324920" class="postLink">iTunes Store</a>
Наличие сканов в содержимом раздачи: Digital Booklet (3 версии)

Треклист:
01. Fearless (04:03)
02. Fifteen (04:55)
03. Love Story (03:55)
04. Hey Stephen (04:16)
05. White Horse (03:55)
06. You Belong With Me (03:52)
07. Breathe [feat. Colbie Caillet] (04:25)
08. Tell Me Why (03:22)
09. You're Not Sorry (04:23)
10. The Way I Loved You (04:05)
11. Forever & Always (03:46)
12. The Best Day (04:06)
13. Change (04:40)
14. Our Song (03:21)
15. Teardrops On My Guitar (03:15)
16. Should've Said No (04:06)
17. Love Story [US Pop Mix] (03:56)
Год издания: 24.06.2009
Продолжительность: 01:16:50
Источник: <a href="https://itunes.apple.com/jp/album/fiaresu-japan-digital-version/id321108071?l=en" class="postLink">iTunes Store</a>
Наличие сканов в содержимом раздачи: нет

Треклист:
01. Fearless (04:03)
02. Fifteen (04:55)
03. Love Story (03:55)
04. Hey Stephen (04:16)
05. White Horse (03:55)
06. You Belong With Me (03:52)
07. Breathe [feat. Colbie Caillet] (04:25)
08. Tell Me Why (03:22)
09. You're Not Sorry (04:23)
10. The Way I Loved You (04:05)
11. Forever & Always (03:46)
12. The Best Day (04:06)
13. Change (04:40)
14. Our Song (03:21)
15. Teardrops On My Guitar (03:15)
16. Should've Said No (04:06)
17. Beautiful Eyes (02:59)
18. Picture To Burn [Radio Edit] (02:54)
19. I'm Only Me When I'm With You (03:35)
20. I Heart? (03:15)
Год издания: 24.10.2009
Продолжительность: 02:56:00 (музыка - 01:19:19; видео - 01:36:41)
Источник: <a href="https://itunes.apple.com/us/album/fearless-platinum-edition/id335627189" class="postLink">iTunes Store</a>
Наличие сканов в содержимом раздачи: оболочка iTunes LP

Треклист:
01. Jump Then Fall (03:57)
02. Untouchable (05:11)
03. Forever & Always [Piano Version] (04:27)
04. Come In With The Rain (03:58)
05. SuperStar (04:23)
06. The Other Side Of The Door (03:58)
07. Fearless (04:03)
08. Fifteen (04:55)
09. Love Story (03:55)
10. Hey Stephen (04:16)
11. White Horse (03:55)
12. You Belong With Me (03:52)
13. Breathe [feat. Colbie Caillat] (04:25)
14. Tell Me Why (03:22)
15. You're Not Sorry (04:23)
16. The Way I Loved You (04:05)
17. Forever & Always (03:46)
18. The Best Day (04:06)
19. Change (04:40)
Качество: WEB-DL
Продолжительность: 00:04:32
Формат: MPEG-4 (Контейнер m4v)
Видео: H.264, 640 x 368 (16:9), 29.970 fps, ~1450 Kbps,
Аудио: Английский (AAC Stereo, 256 Кбит/сек, 44,1 КГц)
Format : MPEG-4
Codec ID : M4V
File size : 56.6 MiB
Duration : 4mn 32s
Overall bit rate : 1 744 Kbps
Movie name : Change
Album : Fearless (Platinum Edition)
Album/Performer : Taylor Swift
Track name/Position : 20
Track name/Total : 0
Performer : Taylor Swift
Genre : Country
Recorded date : UTC 2009-10-26 07:00:00
Encoded date : UTC 2009-10-12 21:25:54
Tagged date : UTC 2009-10-12 21:32:03
Writing library : Apple QuickTime
Copyright : ℗ (C) 2008 Big Machine Records, LLC.
Cover : Yes
apID : <a href="mailto:johngean@justone.com" class="postLink">johngean@justone.com</a>
cnID : 335627846
rtng : 0
atID : 159260351
plID : 335627189
geID : 1606
sfID : 143441
akID : 0
stik : 6
purd : 2009-10-27 05:15:37
xid : Universal:isrc:USCJY0803335
iTunMOVI : <?xml version="1.0" encoding="UTF-8"?> / <!DOCTYPE plist PUBLIC "-//Apple//DTD PLIST 1.0//EN" "http://www.apple.com/DTDs/PropertyList-1.0.dtd"> / <plist version="1.0"> / <dict> / <key>asset-info</key> / <dict> / <key>file-size</key> / <integer>59352767</integer> / <key>flavor</key> / <string>6:640x480LC-256</string> / <key>screen-format</key> / <string>widescreen</string> / </dict> / </dict> / </plist>

Video
ID : 1
Format : AVC
Format/Info : Advanced Video Codec
Format profile : <a href="mailto:Baseline@L3.0" class="postLink">Baseline@L3.0</a>
Format settings, CABAC : No
Format settings, ReFrames : 1 frame
Codec ID : avc1
Codec ID/Info : Advanced Video Coding
Duration : 4mn 32s
Bit rate : 1 450 Kbps
Width : 640 pixels
Height : 368 pixels
Display aspect ratio : 16:9
Frame rate mode : Constant
Frame rate : 29.970 fps
Color space : YUV
Chroma subsampling : 4:2:0
Bit depth : 8 bits
Scan type : Progressive
Bits/(Pixel*Frame) : 0.205
Stream size : 47.1 MiB (83%)
Language : English
Encoded date : UTC 2009-10-12 21:31:56
Tagged date : UTC 2009-10-12 21:32:03
Color primaries : BT.601-6 525, BT.1358 525, BT.1700 NTSC, SMPTE 170M
Transfer characteristics : BT.709-5, BT.1361
Matrix coefficients : BT.601-6 525, BT.1358 525, BT.1700 NTSC, SMPTE 170M

Audio
ID : 2
Format : AAC
Format/Info : Advanced Audio Codec
Format profile : LC
Codec ID : 40
Duration : 4mn 32s
Source duration : 4mn 32s
Bit rate mode : Constant
Bit rate : 256 Kbps
Channel(s) : 2 channels
Channel positions : Front: L R
Sampling rate : 44.1 KHz
Compression mode : Lossy
Stream size : 8.37 MiB (15%)
Source stream size : 8.37 MiB (15%)
Language : English
Encoded date : UTC 2009-10-12 21:31:56
Tagged date : UTC 2009-10-12 21:32:03

Menu
ID : 3
Language : English
Encoded date : UTC 2009-10-12 21:32:02
Tagged date : UTC 2009-10-12 21:32:03
Качество: WEB-DL
Продолжительность: 00:04:35
Формат: MPEG-4 (Контейнер m4v)
Видео: H.264, 640 x 352 (16:9), 29.970 fps, ~1519 Kbps,
Аудио: Английский (AAC Stereo, 256 Кбит/сек, 44,1 КГц)
Format : MPEG-4
Codec ID : M4V
File size : 59.2 MiB
Duration : 4mn 35s
Overall bit rate : 1 804 Kbps
Movie name : The Best Day
Album : Fearless (Platinum Edition)
Album/Performer : Taylor Swift
Track name/Position : 21
Track name/Total : 0
Performer : Taylor Swift
Genre : Country
Recorded date : UTC 2009-10-26 07:00:00
Encoded date : UTC 2009-10-12 21:25:36
Tagged date : UTC 2009-10-12 21:37:47
Writing library : Apple QuickTime
Copyright : ℗ (C) 2009 Big Machine Records, LLC
Cover : Yes
apID : <a href="mailto:johngean@justone.com" class="postLink">johngean@justone.com</a>
cnID : 335628562
rtng : 0
atID : 159260351
plID : 335627189
geID : 1606
sfID : 143441
akID : 0
stik : 6
purd : 2009-10-27 05:15:37
sonm : Best Day
xid : Universal:isrc:USCJY0903500
iTunMOVI : <?xml version="1.0" encoding="UTF-8"?> / <!DOCTYPE plist PUBLIC "-//Apple//DTD PLIST 1.0//EN" "http://www.apple.com/DTDs/PropertyList-1.0.dtd"> / <plist version="1.0"> / <dict> / <key>asset-info</key> / <dict> / <key>file-size</key> / <integer>62082064</integer> / <key>flavor</key> / <string>6:640x480LC-256</string> / <key>screen-format</key> / <string>widescreen</string> / </dict> / </dict> / </plist>

Video
ID : 1
Format : AVC
Format/Info : Advanced Video Codec
Format profile : <a href="mailto:Baseline@L3.0" class="postLink">Baseline@L3.0</a>
Format settings, CABAC : No
Format settings, ReFrames : 1 frame
Codec ID : avc1
Codec ID/Info : Advanced Video Coding
Duration : 4mn 35s
Bit rate : 1 519 Kbps
Width : 640 pixels
Height : 352 pixels
Display aspect ratio : 16:9
Frame rate mode : Constant
Frame rate : 29.970 fps
Color space : YUV
Chroma subsampling : 4:2:0
Bit depth : 8 bits
Scan type : Progressive
Bits/(Pixel*Frame) : 0.225
Stream size : 49.9 MiB (84%)
Language : English
Encoded date : UTC 2009-10-12 21:37:41
Tagged date : UTC 2009-10-12 21:37:47
Color primaries : BT.601-6 525, BT.1358 525, BT.1700 NTSC, SMPTE 170M
Transfer characteristics : BT.709-5, BT.1361
Matrix coefficients : BT.601-6 525, BT.1358 525, BT.1700 NTSC, SMPTE 170M

Audio
ID : 2
Format : AAC
Format/Info : Advanced Audio Codec
Format profile : LC
Codec ID : 40
Duration : 4mn 35s
Source duration : 4mn 35s
Bit rate mode : Constant
Bit rate : 256 Kbps
Channel(s) : 2 channels
Channel positions : Front: L R
Sampling rate : 44.1 KHz
Compression mode : Lossy
Stream size : 8.18 MiB (14%)
Source stream size : 8.18 MiB (14%)
Language : English
Encoded date : UTC 2009-10-12 21:37:41
Tagged date : UTC 2009-10-12 21:37:47

Menu
ID : 3
Language : English
Encoded date : UTC 2009-10-12 21:37:47
Tagged date : UTC 2009-10-12 21:37:47
Качество: WEB-DL
Продолжительность: 00:03:56
Формат: MPEG-4 (Контейнер m4v)
Видео: H.264, 640 x 352 (16:9), 23.976 fps, ~1519 kbps,
Аудио: Английский (AAC Stereo, 256 Кбит/сек, 44,1 КГц)
Format : MPEG-4
Codec ID : M4V
File size : 52.1 MiB
Duration : 3mn 56s
Overall bit rate : 1 848 Kbps
Movie name : Love Story
Album : Fearless (Platinum Edition)
Album/Performer : Taylor Swift
Track name/Position : 22
Track name/Total : 0
Performer : Taylor Swift
Genre : Country
Recorded date : UTC 2009-10-26 07:00:00
Encoded date : UTC 2009-10-12 21:32:00
Tagged date : UTC 2009-10-12 21:36:03
Writing library : Apple QuickTime
Copyright : ℗ (C) 2008 Big Machine Records, LLC
Cover : Yes
apID : <a href="mailto:johngean@justone.com" class="postLink">johngean@justone.com</a>
cnID : 335628615
rtng : 0
atID : 159260351
plID : 335627189
geID : 1606
sfID : 143441
akID : 0
stik : 6
purd : 2009-10-27 05:15:37
xid : Universal:isrc:USCJY0803276
iTunMOVI : <?xml version="1.0" encoding="UTF-8"?> / <!DOCTYPE plist PUBLIC "-//Apple//DTD PLIST 1.0//EN" "http://www.apple.com/DTDs/PropertyList-1.0.dtd"> / <plist version="1.0"> / <dict> / <key>asset-info</key> / <dict> / <key>file-size</key> / <integer>54634866</integer> / <key>flavor</key> / <string>6:640x480LC-256</string> / <key>screen-format</key> / <string>widescreen</string> / </dict> / </dict> / </plist>

Video
ID : 1
Format : AVC
Format/Info : Advanced Video Codec
Format profile : <a href="mailto:Baseline@L3.0" class="postLink">Baseline@L3.0</a>
Format settings, CABAC : No
Format settings, ReFrames : 1 frame
Codec ID : avc1
Codec ID/Info : Advanced Video Coding
Duration : 3mn 56s
Bit rate : 1 558 Kbps
Width : 640 pixels
Height : 352 pixels
Display aspect ratio : 16:9
Frame rate mode : Constant
Frame rate : 23.976 fps
Color space : YUV
Chroma subsampling : 4:2:0
Bit depth : 8 bits
Scan type : Progressive
Bits/(Pixel*Frame) : 0.288
Stream size : 43.9 MiB (84%)
Language : English
Encoded date : UTC 2009-10-12 21:35:59
Tagged date : UTC 2009-10-12 21:36:03
Color primaries : BT.601-6 525, BT.1358 525, BT.1700 NTSC, SMPTE 170M
Transfer characteristics : BT.709-5, BT.1361
Matrix coefficients : BT.601-6 525, BT.1358 525, BT.1700 NTSC, SMPTE 170M

Audio
ID : 2
Format : AAC
Format/Info : Advanced Audio Codec
Format profile : LC
Codec ID : 40
Duration : 3mn 56s
Source duration : 3mn 56s
Bit rate mode : Constant
Bit rate : 256 Kbps
Channel(s) : 2 channels
Channel positions : Front: L R
Sampling rate : 44.1 KHz
Compression mode : Lossy
Stream size : 7.03 MiB (13%)
Source stream size : 7.03 MiB (13%)
Language : English
Encoded date : UTC 2009-10-12 21:35:59
Tagged date : UTC 2009-10-12 21:36:03

Menu
ID : 3
Language : English
Encoded date : UTC 2009-10-12 21:36:03
Tagged date : UTC 2009-10-12 21:36:03
Качество: WEB-DL
Продолжительность: 00:04:05
Формат: MPEG-4 (Контейнер m4v)
Видео: H.264, 640 x 336 (1.905), 23.976 fps, ~1467 kbps,
Аудио: Английский (AAC Stereo, 256 Кбит/сек, 44,1 КГц)
Format : MPEG-4
Codec ID : M4V
File size : 51.3 MiB
Duration : 4mn 4s
Overall bit rate : 1 757 Kbps
Movie name : White Horse
Album : Fearless (Platinum Edition)
Album/Performer : Taylor Swift
Track name/Position : 23
Track name/Total : 0
Performer : Taylor Swift
Genre : Country
Recorded date : UTC 2009-10-26 07:00:00
Encoded date : UTC 2009-10-12 21:24:54
Tagged date : UTC 2009-10-12 21:30:35
Writing library : Apple QuickTime
Copyright : ℗ (C) 2009 Big Machine Records, LLC
Cover : Yes
apID : <a href="mailto:johngean@justone.com" class="postLink">johngean@justone.com</a>
cnID : 335628624
rtng : 0
atID : 366494
plID : 335627189
geID : 1606
sfID : 143441
akID : 0
stik : 6
purd : 2009-10-27 05:15:37
xid : Universal:isrc:USCJY0903465
iTunMOVI : <?xml version="1.0" encoding="UTF-8"?> / <!DOCTYPE plist PUBLIC "-//Apple//DTD PLIST 1.0//EN" "http://www.apple.com/DTDs/PropertyList-1.0.dtd"> / <plist version="1.0"> / <dict> / <key>asset-info</key> / <dict> / <key>file-size</key> / <integer>53791497</integer> / <key>flavor</key> / <string>6:640x480LC-256</string> / <key>screen-format</key> / <string>widescreen</string> / </dict> / </dict> / </plist>

Video
ID : 1
Format : AVC
Format/Info : Advanced Video Codec
Format profile : <a href="mailto:Baseline@L2.2" class="postLink">Baseline@L2.2</a>
Format settings, CABAC : No
Format settings, ReFrames : 1 frame
Format settings, GOP : N=1
Codec ID : avc1
Codec ID/Info : Advanced Video Coding
Duration : 4mn 4s
Bit rate : 1 467 Kbps
Width : 640 pixels
Height : 336 pixels
Display aspect ratio : 1.905
Frame rate mode : Constant
Frame rate : 23.976 fps
Color space : YUV
Chroma subsampling : 4:2:0
Bit depth : 8 bits
Scan type : Progressive
Bits/(Pixel*Frame) : 0.285
Stream size : 42.8 MiB (83%)
Language : English
Encoded date : UTC 2009-10-12 21:30:30
Tagged date : UTC 2009-10-12 21:30:35
Color primaries : BT.601-6 525, BT.1358 525, BT.1700 NTSC, SMPTE 170M
Transfer characteristics : BT.709-5, BT.1361
Matrix coefficients : BT.601-6 525, BT.1358 525, BT.1700 NTSC, SMPTE 170M

Audio
ID : 2
Format : AAC
Format/Info : Advanced Audio Codec
Format profile : LC
Codec ID : 40
Duration : 4mn 4s
Source duration : 4mn 4s
Bit rate mode : Constant
Bit rate : 256 Kbps
Channel(s) : 2 channels
Channel positions : Front: L R
Sampling rate : 44.1 KHz
Compression mode : Lossy
Stream size : 7.33 MiB (14%)
Source stream size : 7.33 MiB (14%)
Language : English
Encoded date : UTC 2009-10-12 21:30:30
Tagged date : UTC 2009-10-12 21:30:35

Menu
ID : 3
Language : English
Encoded date : UTC 2009-10-12 21:30:34
Tagged date : UTC 2009-10-12 21:30:35
Качество: WEB-DL
Продолжительность: 00:03:48
Формат: MPEG-4 (Контейнер m4v)
Видео: H.264, 640 x 352 (16:9), 23.976 fps, ~1 517 Kbps,
Аудио: Английский (AAC Stereo, 256 Кбит/сек, 44,1 КГц)
Format : MPEG-4
Codec ID : M4V
File size : 49.2 MiB
Duration : 3mn 48s
Overall bit rate : 1 807 Kbps
Movie name : You Belong With Me
Album : Fearless (Platinum Edition)
Album/Performer : Taylor Swift
Track name/Position : 24
Track name/Total : 0
Performer : Taylor Swift
Genre : Country
Recorded date : UTC 2009-10-26 07:00:00
Encoded date : UTC 2009-10-12 21:25:04
Tagged date : UTC 2009-10-12 21:32:53
Writing library : Apple QuickTime
Copyright : ℗ (C) 2009 Big Machine Records, LLC
Cover : Yes
apID : <a href="mailto:johngean@justone.com" class="postLink">johngean@justone.com</a>
cnID : 335628709
rtng : 0
atID : 20826
plID : 335627189
geID : 1606
sfID : 143441
akID : 0
stik : 6
purd : 2009-10-27 05:15:37
xid : Universal:isrc:USCJY0903499
iTunMOVI : <?xml version="1.0" encoding="UTF-8"?> / <!DOCTYPE plist PUBLIC "-//Apple//DTD PLIST 1.0//EN" "http://www.apple.com/DTDs/PropertyList-1.0.dtd"> / <plist version="1.0"> / <dict> / <key>asset-info</key> / <dict> / <key>file-size</key> / <integer>51619668</integer> / <key>flavor</key> / <string>6:640x480LC-256</string> / <key>screen-format</key> / <string>widescreen</string> / </dict> / </dict> / </plist>

Video
ID : 1
Format : AVC
Format/Info : Advanced Video Codec
Format profile : <a href="mailto:Baseline@L3.0" class="postLink">Baseline@L3.0</a>
Format settings, CABAC : No
Format settings, ReFrames : 1 frame
Codec ID : avc1
Codec ID/Info : Advanced Video Coding
Duration : 3mn 48s
Bit rate : 1 517 Kbps
Width : 640 pixels
Height : 352 pixels
Display aspect ratio : 16:9
Frame rate mode : Constant
Frame rate : 23.976 fps
Color space : YUV
Chroma subsampling : 4:2:0
Bit depth : 8 bits
Scan type : Progressive
Bits/(Pixel*Frame) : 0.281
Stream size : 41.3 MiB (84%)
Language : English
Encoded date : UTC 2009-10-12 21:32:48
Tagged date : UTC 2009-10-12 21:32:53
Color primaries : BT.601-6 525, BT.1358 525, BT.1700 NTSC, SMPTE 170M
Transfer characteristics : BT.709-5, BT.1361
Matrix coefficients : BT.601-6 525, BT.1358 525, BT.1700 NTSC, SMPTE 170M

Audio
ID : 2
Format : AAC
Format/Info : Advanced Audio Codec
Format profile : LC
Codec ID : 40
Duration : 3mn 48s
Source duration : 3mn 48s
Bit rate mode : Constant
Bit rate : 256 Kbps
Channel(s) : 2 channels
Channel positions : Front: L R
Sampling rate : 44.1 KHz
Compression mode : Lossy
Stream size : 6.77 MiB (14%)
Source stream size : 6.77 MiB (14%)
Language : English
Encoded date : UTC 2009-10-12 21:32:48
Tagged date : UTC 2009-10-12 21:32:53

Menu
ID : 3
Language : English
Encoded date : UTC 2009-10-12 21:32:53
Tagged date : UTC 2009-10-12 21:32:53
Качество: WEB-DL
Продолжительность: 00:22:05
Формат: MPEG-4 (Контейнер m4v)
Видео: H.264, 640 x 464 (1.379), 23.976 fps, ~1 508 Kbps,
Аудио: Английский (AAC Stereo, 256 Кбит/сек, 44,1 КГц)
Format : MPEG-4
Codec ID : M4V
File size : 279 MiB
Duration : 22mn 4s
Overall bit rate : 1 770 Kbps
Movie name : Love Story (On The Set Behind The Scenes)
Album : Fearless (Platinum Edition)
Album/Performer : Taylor Swift
Track name/Position : 25
Track name/Total : 0
Performer : Taylor Swift
Genre : Country
Recorded date : UTC 2009-10-26 07:00:00
Encoded date : UTC 2009-10-12 21:35:04
Tagged date : UTC 2009-10-12 22:35:20
Writing library : Apple QuickTime
Copyright : ℗ (C) 2009 Big Machine Records, LLC
Cover : Yes
Comment : (On the Set Behind the Scenes)
apID : <a href="mailto:johngean@justone.com" class="postLink">johngean@justone.com</a>
cnID : 335628723
rtng : 0
atID : 159260351
plID : 335627189
geID : 1606
sfID : 143441
akID : 0
stik : 6
purd : 2009-10-27 05:15:37
sonm : Love Story
xid : Universal:isrc:USCJY0903548
iTunMOVI : <?xml version="1.0" encoding="UTF-8"?> / <!DOCTYPE plist PUBLIC "-//Apple//DTD PLIST 1.0//EN" "http://www.apple.com/DTDs/PropertyList-1.0.dtd"> / <plist version="1.0"> / <dict> / <key>asset-info</key> / <dict> / <key>file-size</key> / <integer>293065094</integer> / <key>flavor</key> / <string>6:640x480LC-256</string> / <key>screen-format</key> / <string>widescreen</string> / </dict> / </dict> / </plist>

Video
ID : 1
Format : AVC
Format/Info : Advanced Video Codec
Format profile : <a href="mailto:Baseline@L3.0" class="postLink">Baseline@L3.0</a>
Format settings, CABAC : No
Format settings, ReFrames : 1 frame
Codec ID : avc1
Codec ID/Info : Advanced Video Coding
Duration : 22mn 4s
Bit rate : 1 508 Kbps
Width : 640 pixels
Height : 464 pixels
Display aspect ratio : 1.379
Frame rate mode : Constant
Frame rate : 23.976 fps
Color space : YUV
Chroma subsampling : 4:2:0
Bit depth : 8 bits
Scan type : Progressive
Bits/(Pixel*Frame) : 0.212
Stream size : 238 MiB (85%)
Language : English
Encoded date : UTC 2009-10-12 22:34:55
Tagged date : UTC 2009-10-12 22:35:20
Color primaries : BT.601-6 525, BT.1358 525, BT.1700 NTSC, SMPTE 170M
Transfer characteristics : BT.709-5, BT.1361
Matrix coefficients : BT.601-6 525, BT.1358 525, BT.1700 NTSC, SMPTE 170M

Audio
ID : 2
Format : AAC
Format/Info : Advanced Audio Codec
Format profile : LC
Codec ID : 40
Duration : 22mn 4s
Source duration : 22mn 4s
Bit rate mode : Constant
Bit rate : 256 Kbps
Channel(s) : 2 channels
Channel positions : Front: L R
Sampling rate : 44.1 KHz
Compression mode : Lossy
Stream size : 39.7 MiB (14%)
Source stream size : 39.7 MiB (14%)
Language : English
Encoded date : UTC 2009-10-12 22:34:55
Tagged date : UTC 2009-10-12 22:35:20

Menu
ID : 3
Language : English
Encoded date : UTC 2009-10-12 22:35:20
Tagged date : UTC 2009-10-12 22:35:20
Качество: WEB-DL
Продолжительность: 00:20:45
Формат: MPEG-4 (Контейнер m4v)
Видео: H.264, 640 x 464 (1.379), 29.970 fps, ~1 538 Kbps,
Аудио: Английский (AAC Stereo, 256 Кбит/сек, 44,1 КГц)
Format : MPEG-4
Codec ID : M4V
File size : 267 MiB
Duration : 20mn 45s
Overall bit rate : 1 800 Kbps
Movie name : White Horse (On The Set Behind The Scenes)
Album : Fearless (Platinum Edition)
Album/Performer : Taylor Swift
Track name/Position : 26
Track name/Total : 0
Performer : Taylor Swift
Genre : Country
Recorded date : UTC 2009-10-26 07:00:00
Encoded date : UTC 2009-10-12 21:33:57
Tagged date : UTC 2009-10-12 22:41:25
Writing library : Apple QuickTime
Copyright : ℗ (C) 2009 Big Machine Records, LLC
Cover : Yes
Comment : (On the Set Behind the Scenes)
apID : <a href="mailto:johngean@justone.com" class="postLink">johngean@justone.com</a>
cnID : 335628919
rtng : 0
atID : 366494
plID : 335627189
geID : 1606
sfID : 143441
akID : 0
stik : 6
purd : 2009-10-27 05:15:37
sonm : White Horse
xid : Universal:isrc:USCJY0903549
iTunMOVI : <?xml version="1.0" encoding="UTF-8"?> / <!DOCTYPE plist PUBLIC "-//Apple//DTD PLIST 1.0//EN" "http://www.apple.com/DTDs/PropertyList-1.0.dtd"> / <plist version="1.0"> / <dict> / <key>asset-info</key> / <dict> / <key>file-size</key> / <integer>280169197</integer> / <key>flavor</key> / <string>6:640x480LC-256</string> / <key>screen-format</key> / <string>widescreen</string> / </dict> / </dict> / </plist>

Video
ID : 1
Format : AVC
Format/Info : Advanced Video Codec
Format profile : <a href="mailto:Baseline@L3.0" class="postLink">Baseline@L3.0</a>
Format settings, CABAC : No
Format settings, ReFrames : 1 frame
Codec ID : avc1
Codec ID/Info : Advanced Video Coding
Duration : 20mn 45s
Bit rate : 1 538 Kbps
Width : 640 pixels
Height : 464 pixels
Display aspect ratio : 1.379
Frame rate mode : Constant
Frame rate : 29.970 fps
Color space : YUV
Chroma subsampling : 4:2:0
Bit depth : 8 bits
Scan type : Progressive
Bits/(Pixel*Frame) : 0.173
Stream size : 228 MiB (85%)
Language : English
Encoded date : UTC 2009-10-12 22:41:00
Tagged date : UTC 2009-10-12 22:41:25
Color primaries : BT.601-6 525, BT.1358 525, BT.1700 NTSC, SMPTE 170M
Transfer characteristics : BT.709-5, BT.1361
Matrix coefficients : BT.601-6 525, BT.1358 525, BT.1700 NTSC, SMPTE 170M

Audio
ID : 2
Format : AAC
Format/Info : Advanced Audio Codec
Format profile : LC
Codec ID : 40
Duration : 20mn 45s
Source duration : 20mn 45s
Bit rate mode : Constant
Bit rate : 256 Kbps
Channel(s) : 2 channels
Channel positions : Front: L R
Sampling rate : 44.1 KHz
Compression mode : Lossy
Stream size : 37.4 MiB (14%)
Source stream size : 37.4 MiB (14%)
Language : English
Encoded date : UTC 2009-10-12 22:41:00
Tagged date : UTC 2009-10-12 22:41:25

Menu
ID : 3
Language : English
Encoded date : UTC 2009-10-12 22:41:25
Tagged date : UTC 2009-10-12 22:41:25
Качество: WEB-DL
Продолжительность: 00:20:48
Формат: MPEG-4 (Контейнер m4v)
Видео: H.264, 640 x 464 (1.379), 29.970 fps, ~1 600 Kbps,
Аудио: Английский (AAC Stereo, 256 Кбит/сек, 44,1 КГц)
Format : MPEG-4
Codec ID : M4V
File size : 277 MiB
Duration : 20mn 48s
Overall bit rate : 1 862 Kbps
Movie name : You Belong With Me
Album : Fearless (Platinum Edition)
Album/Performer : Taylor Swift
Track name/Position : 27
Track name/Total : 0
Performer : Taylor Swift
Genre : Country
Recorded date : UTC 2009-10-26 07:00:00
Encoded date : UTC 2009-10-12 21:34:24
Tagged date : UTC 2009-10-12 22:40:50
Writing library : Apple QuickTime
Copyright : ℗ (C) 2009 Big Machine Records, LLC
Cover : Yes
Comment : (On the Set Behind the Scenes)
apID : <a href="mailto:johngean@justone.com" class="postLink">johngean@justone.com</a>
cnID : 335628971
rtng : 0
atID : 366494
plID : 335627189
geID : 1606
sfID : 143441
akID : 0
stik : 6
purd : 2009-10-27 05:15:37
xid : Universal:isrc:USCJY0903550
iTunMOVI : <?xml version="1.0" encoding="UTF-8"?> / <!DOCTYPE plist PUBLIC "-//Apple//DTD PLIST 1.0//EN" "http://www.apple.com/DTDs/PropertyList-1.0.dtd"> / <plist version="1.0"> / <dict> / <key>asset-info</key> / <dict> / <key>file-size</key> / <integer>290519166</integer> / <key>flavor</key> / <string>6:640x480LC-256</string> / <key>screen-format</key> / <string>widescreen</string> / </dict> / </dict> / </plist>

Video
ID : 1
Format : AVC
Format/Info : Advanced Video Codec
Format profile : <a href="mailto:Baseline@L3.0" class="postLink">Baseline@L3.0</a>
Format settings, CABAC : No
Format settings, ReFrames : 1 frame
Codec ID : avc1
Codec ID/Info : Advanced Video Coding
Duration : 20mn 48s
Bit rate : 1 600 Kbps
Width : 640 pixels
Height : 464 pixels
Display aspect ratio : 1.379
Frame rate mode : Constant
Frame rate : 29.970 fps
Color space : YUV
Chroma subsampling : 4:2:0
Bit depth : 8 bits
Scan type : Progressive
Bits/(Pixel*Frame) : 0.180
Stream size : 238 MiB (86%)
Language : English
Encoded date : UTC 2009-10-12 22:40:24
Tagged date : UTC 2009-10-12 22:40:50
Color primaries : BT.601-6 525, BT.1358 525, BT.1700 NTSC, SMPTE 170M
Transfer characteristics : BT.709-5, BT.1361
Matrix coefficients : BT.601-6 525, BT.1358 525, BT.1700 NTSC, SMPTE 170M

Audio
ID : 2
Format : AAC
Format/Info : Advanced Audio Codec
Format profile : LC
Codec ID : 40
Duration : 20mn 48s
Source duration : 20mn 48s
Bit rate mode : Constant
Bit rate : 256 Kbps
Channel(s) : 2 channels
Channel positions : Front: L R
Sampling rate : 44.1 KHz
Compression mode : Lossy
Stream size : 37.4 MiB (14%)
Source stream size : 37.4 MiB (14%)
Language : English
Encoded date : UTC 2009-10-12 22:40:24
Tagged date : UTC 2009-10-12 22:40:50

Menu
ID : 3
Language : English
Encoded date : UTC 2009-10-12 22:40:50
Tagged date : UTC 2009-10-12 22:40:50
Качество: WEB-DL
Продолжительность: 00:10:42
Формат: MPEG-4 (Контейнер m4v)
Видео: H.264, 640 x 352 (16:9), 29.970 fps, ~1 518 Kbps,
Аудио: Английский (AAC Stereo, 256 Кбит/сек, 44,1 КГц)
Format : MPEG-4
Codec ID : M4V
File size : 137 MiB
Duration : 10mn 42s
Overall bit rate : 1 787 Kbps
Movie name : Fearless Tour 2009 First Show Behind The Scenes
Album : Fearless (Platinum Edition)
Album/Performer : Taylor Swift
Track name/Position : 28
Track name/Total : 0
Performer : Taylor Swift
Genre : Country
Recorded date : UTC 2009-10-26 07:00:00
Encoded date : UTC 2009-10-12 21:29:19
Tagged date : UTC 2009-10-12 21:49:13
Writing library : Apple QuickTime
Copyright : ℗ (C) 2009 Big Machine Records, LLC
Cover : Yes
apID : <a href="mailto:johngean@justone.com" class="postLink">johngean@justone.com</a>
cnID : 335629065
rtng : 0
atID : 20826
plID : 335627189
geID : 1606
sfID : 143441
akID : 0
stik : 6
purd : 2009-10-27 05:15:37
xid : Universal:isrc:USCJY0903551
iTunMOVI : <?xml version="1.0" encoding="UTF-8"?> / <!DOCTYPE plist PUBLIC "-//Apple//DTD PLIST 1.0//EN" "http://www.apple.com/DTDs/PropertyList-1.0.dtd"> / <plist version="1.0"> / <dict> / <key>asset-info</key> / <dict> / <key>file-size</key> / <integer>143416865</integer> / <key>flavor</key> / <string>6:640x480LC-256</string> / <key>screen-format</key> / <string>widescreen</string> / </dict> / </dict> / </plist>

Video
ID : 1
Format : AVC
Format/Info : Advanced Video Codec
Format profile : <a href="mailto:Baseline@L3.0" class="postLink">Baseline@L3.0</a>
Format settings, CABAC : No
Format settings, ReFrames : 1 frame
Codec ID : avc1
Codec ID/Info : Advanced Video Coding
Duration : 10mn 42s
Bit rate : 1 518 Kbps
Width : 640 pixels
Height : 352 pixels
Display aspect ratio : 16:9
Frame rate mode : Constant
Frame rate : 29.970 fps
Color space : YUV
Chroma subsampling : 4:2:0
Bit depth : 8 bits
Scan type : Progressive
Bits/(Pixel*Frame) : 0.225
Stream size : 116 MiB (85%)
Language : English
Encoded date : UTC 2009-10-12 21:49:00
Tagged date : UTC 2009-10-12 21:49:13
Color primaries : BT.601-6 525, BT.1358 525, BT.1700 NTSC, SMPTE 170M
Transfer characteristics : BT.709-5, BT.1361
Matrix coefficients : BT.601-6 525, BT.1358 525, BT.1700 NTSC, SMPTE 170M

Audio
ID : 2
Format : AAC
Format/Info : Advanced Audio Codec
Format profile : LC
Codec ID : 40
Duration : 10mn 42s
Source duration : 10mn 42s
Bit rate mode : Constant
Bit rate : 256 Kbps
Channel(s) : 2 channels
Channel positions : Front: L R
Sampling rate : 44.1 KHz
Compression mode : Lossy
Stream size : 19.3 MiB (14%)
Source stream size : 19.3 MiB (14%)
Language : English
Encoded date : UTC 2009-10-12 21:49:00
Tagged date : UTC 2009-10-12 21:49:13

Menu
ID : 3
Language : English
Encoded date : UTC 2009-10-12 21:49:13
Tagged date : UTC 2009-10-12 21:49:13
Качество: WEB-DL
Продолжительность: 00:01:27
Формат: MPEG-4 (Контейнер m4v)
Видео: H.264, 640 x 352 (16:9), 29.970 fps, ~1 463 Kbps,
Аудио: Английский (AAC Stereo, 256 Кбит/сек, 44,1 КГц)
Format : MPEG-4
Codec ID : M4V
File size : 18.9 MiB
Duration : 1mn 27s
Overall bit rate : 1 819 Kbps
Movie name : Thug Story (CMT Awards)
Album : Fearless (Platinum Edition)
Album/Performer : Taylor Swift
Track name/Position : 29
Track name/Total : 0
Performer : Taylor Swift & T-Pain
Genre : Country
Recorded date : UTC 2009-10-26 07:00:00
Encoded date : UTC 2009-10-12 21:23:27
Tagged date : UTC 2009-10-12 21:25:20
Writing library : Apple QuickTime
Copyright : ℗ (C) 2009 Big Machine Records, LLC
Cover : Yes
Comment : (CMT Awards)
apID : <a href="mailto:johngean@justone.com" class="postLink">johngean@justone.com</a>
cnID : 335629096
rtng : 0
atID : 324906465
plID : 335627189
geID : 1606
sfID : 143441
akID : 0
stik : 6
purd : 2009-10-27 05:15:37
sonm : Thug Story
xid : Universal:isrc:USCJY0903552
iTunMOVI : <?xml version="1.0" encoding="UTF-8"?> / <!DOCTYPE plist PUBLIC "-//Apple//DTD PLIST 1.0//EN" "http://www.apple.com/DTDs/PropertyList-1.0.dtd"> / <plist version="1.0"> / <dict> / <key>asset-info</key> / <dict> / <key>file-size</key> / <integer>19849808</integer> / <key>flavor</key> / <string>6:640x480LC-256</string> / <key>screen-format</key> / <string>widescreen</string> / </dict> / </dict> / </plist>

Video
ID : 1
Format : AVC
Format/Info : Advanced Video Codec
Format profile : <a href="mailto:Baseline@L3.0" class="postLink">Baseline@L3.0</a>
Format settings, CABAC : No
Format settings, ReFrames : 1 frame
Codec ID : avc1
Codec ID/Info : Advanced Video Coding
Duration : 1mn 27s
Bit rate : 1 463 Kbps
Width : 640 pixels
Height : 352 pixels
Display aspect ratio : 16:9
Frame rate mode : Constant
Frame rate : 29.970 fps
Color space : YUV
Chroma subsampling : 4:2:0
Bit depth : 8 bits
Scan type : Progressive
Bits/(Pixel*Frame) : 0.217
Stream size : 15.2 MiB (80%)
Language : English
Encoded date : UTC 2009-10-12 21:25:18
Tagged date : UTC 2009-10-12 21:25:20
Color primaries : BT.601-6 525, BT.1358 525, BT.1700 NTSC, SMPTE 170M
Transfer characteristics : BT.709-5, BT.1361
Matrix coefficients : BT.601-6 525, BT.1358 525, BT.1700 NTSC, SMPTE 170M

Audio
ID : 2
Format : AAC
Format/Info : Advanced Audio Codec
Format profile : LC
Codec ID : 40
Duration : 1mn 27s
Source duration : 1mn 27s
Bit rate mode : Constant
Bit rate : 256 Kbps
Channel(s) : 2 channels
Channel positions : Front: L R
Sampling rate : 44.1 KHz
Compression mode : Lossy
Stream size : 2.61 MiB (14%)
Source stream size : 2.61 MiB (14%)
Language : English
Encoded date : UTC 2009-10-12 21:25:19
Tagged date : UTC 2009-10-12 21:25:20

Menu
ID : 3
Language : English
Encoded date : UTC 2009-10-12 21:25:20
Tagged date : UTC 2009-10-12 21:25:20
Бонусы iTunes LP:
1. Фотографии
2. Интервью с Тейлор
3. Специальная анимационная заставка во время проигрывания песен
4. Письмо Тейлор для поклонников
Год издания: 25.10.2010
Продолжительность: 02:15:14 (музыка - 01:40:59; видео - 00:34:15)
Источник: <a href="https://itunes.apple.com/gb/album/speak-now-extended-version/id399880771" class="postLink">iTunes Store</a>
Наличие сканов в содержимом раздачи: Digital Booklet

Треклист:
01. Mine (03:51)
02. Sparks Fly (04:23)
03. Back To December (04:53)
04. Speak Now (04:03)
05. Dear John (06:46)
06. Mean (03:59)
07. The Story Of Us (04:28)
08. Never Grow Up (04:53)
09. Enchanted (05:53)
10. Better Than Revenge (03:37)
11. Innocent (05:04)
12. Haunted (04:05)
13. Last Kiss (06:09)
14. Long Live (05:16)
15. Ours (03:58)
16. If This Was A Movie (03:54)
17. Superman (04:37)
18. Back To December [Acoustic Version] (04:54)
19. Haunted [Acoustic Version] (03:37)
20. Mine [US Version] (03:51)
21. Back To December [US Version] (04:53)
22. The Story Of Us [US Version] (04:26)
Качество: WEB-DL
Продолжительность: 00:30:21
Формат: MPEG-4 (Контейнер m4v)
Видео: H.264, 640 x 359 (16:9), 29.970 fps, ~1539 Kbps,
Аудио: Английский (AAC Stereo, 256 Кбит/сек, 44,1 КГц)
Format : MPEG-4
Codec ID : M4V
File size : 390 MiB
Duration : 30mn 20s
Overall bit rate : 1 798 Kbps
Movie name : Behind The Scenes 'Mine' Music Video
Album : Speak Now (Extended Version)
Album/Performer : Taylor Swift
Track name/Position : 23
Track name/Total : 0
Performer : Taylor Swift
Genre : Country
Recorded date : UTC 2003-04-28 07:00:00
Encoded date : UTC 2010-10-22 23:01:28
Tagged date : UTC 2010-10-22 23:49:10
Writing library : Apple QuickTime
Copyright : ℗ 2010 Big Machine Records, LLC
Cover : Yes
apID : <a href="mailto:wendy@copsale.fsnet.co.uk" class="postLink">wendy@copsale.fsnet.co.uk</a>
cnID : 399882976
rtng : 0
atID : 159260351
plID : 399880771
geID : 1614
sfID : 143444
akID : 0
stik : 6
purd : 2010-10-26 16:40:26
xid : Universal:isrc:GBUV71006583
iTunMOVI : <?xml version="1.0" encoding="UTF-8"?> / <!DOCTYPE plist PUBLIC "-//Apple//DTD PLIST 1.0//EN" "http://www.apple.com/DTDs/PropertyList-1.0.dtd"> / <plist version="1.0"> / <dict> / <key>asset-info</key> / <dict> / <key>file-size</key> / <integer>409173934</integer> / <key>flavor</key> / <string>6:640x480LC-256</string> / <key>screen-format</key> / <string>widescreen</string> / </dict> / </dict> / </plist>

Video
ID : 1
Format : AVC
Format/Info : Advanced Video Codec
Format profile : <a href="mailto:Baseline@L3.0" class="postLink">Baseline@L3.0</a>
Format settings, CABAC : No
Format settings, ReFrames : 1 frame
Codec ID : avc1
Codec ID/Info : Advanced Video Coding
Duration : 30mn 20s
Bit rate : 1 539 Kbps
Width : 640 pixels
Height : 359 pixels
Original height : 360 pixels
Display aspect ratio : 16:9
Original display aspect ratio : 16:9
Frame rate mode : Constant
Frame rate : 29.970 fps
Color space : YUV
Chroma subsampling : 4:2:0
Bit depth : 8 bits
Scan type : Progressive
Bits/(Pixel*Frame) : 0.223
Stream size : 334 MiB (86%)
Language : English
Encoded date : UTC 2010-10-22 23:48:37
Tagged date : UTC 2010-10-22 23:49:10
Color primaries : BT.601-6 525, BT.1358 525, BT.1700 NTSC, SMPTE 170M
Transfer characteristics : BT.709-5, BT.1361
Matrix coefficients : BT.601-6 525, BT.1358 525, BT.1700 NTSC, SMPTE 170M

Audio
ID : 2
Format : AAC
Format/Info : Advanced Audio Codec
Format profile : LC
Codec ID : 40
Duration : 30mn 20s
Source duration : 30mn 20s
Bit rate mode : Constant
Bit rate : 256 Kbps
Channel(s) : 2 channels
Channel positions : Front: L R
Sampling rate : 44.1 KHz
Compression mode : Lossy
Stream size : 54.5 MiB (14%)
Source stream size : 54.5 MiB (14%)
Language : English
Encoded date : UTC 2010-10-22 23:48:37
Tagged date : UTC 2010-10-22 23:49:10

Menu
ID : 3
Language : English
Encoded date : UTC 2010-10-22 23:49:10
Tagged date : UTC 2010-10-22 23:49:10
Качество: WEB-DL
Продолжительность: 00:03:55
Формат: MPEG-4 (Контейнер m4v)
Видео: H.264, 640 x 359 (16:9), 29.970 fps, ~1576 Kbps,
Аудио: Английский (AAC Stereo, 256 Кбит/сек, 44,1 КГц)
Format : MPEG-4
Codec ID : M4V
File size : 52.2 MiB
Duration : 3mn 55s
Overall bit rate : 1 861 Kbps
Movie name : Mine
Album : Speak Now (Extended Version)
Album/Performer : Taylor Swift
Track name/Position : 24
Track name/Total : 0
Performer : Taylor Swift
Genre : Country
Recorded date : UTC 2003-04-28 07:00:00
Encoded date : UTC 2010-10-22 22:49:14
Tagged date : UTC 2010-10-22 22:58:54
Writing library : Apple QuickTime
Copyright : ℗ 2010 Big Machine Records, LLC
Cover : Yes
apID : <a href="mailto:wendy@copsale.fsnet.co.uk" class="postLink">wendy@copsale.fsnet.co.uk</a>
cnID : 399882979
rtng : 0
atID : 120764336
plID : 399880771
geID : 1614
sfID : 143444
akID : 0
stik : 6
purd : 2010-10-26 16:40:26
xid : Universal:isrc:GBUV71005887
iTunMOVI : <?xml version="1.0" encoding="UTF-8"?> / <!DOCTYPE plist PUBLIC "-//Apple//DTD PLIST 1.0//EN" "http://www.apple.com/DTDs/PropertyList-1.0.dtd"> / <plist version="1.0"> / <dict> / <key>asset-info</key> / <dict> / <key>file-size</key> / <integer>54774302</integer> / <key>flavor</key> / <string>6:640x480LC-256</string> / <key>screen-format</key> / <string>widescreen</string> / </dict> / </dict> / </plist>

Video
ID : 1
Format : AVC
Format/Info : Advanced Video Codec
Format profile : <a href="mailto:Baseline@L3.0" class="postLink">Baseline@L3.0</a>
Format settings, CABAC : No
Format settings, ReFrames : 1 frame
Codec ID : avc1
Codec ID/Info : Advanced Video Coding
Duration : 3mn 55s
Bit rate : 1 576 Kbps
Width : 640 pixels
Height : 359 pixels
Original height : 360 pixels
Display aspect ratio : 16:9
Original display aspect ratio : 16:9
Frame rate mode : Constant
Frame rate : 29.970 fps
Color space : YUV
Chroma subsampling : 4:2:0
Bit depth : 8 bits
Scan type : Progressive
Bits/(Pixel*Frame) : 0.229
Stream size : 44.2 MiB (85%)
Language : English
Encoded date : UTC 2010-10-22 22:58:49
Tagged date : UTC 2010-10-22 22:58:54
Color primaries : BT.601-6 525, BT.1358 525, BT.1700 NTSC, SMPTE 170M
Transfer characteristics : BT.709-5, BT.1361
Matrix coefficients : BT.601-6 525, BT.1358 525, BT.1700 NTSC, SMPTE 170M

Audio
ID : 2
Format : AAC
Format/Info : Advanced Audio Codec
Format profile : LC
Codec ID : 40
Duration : 3mn 55s
Source duration : 3mn 55s
Bit rate mode : Constant
Bit rate : 256 Kbps
Channel(s) : 2 channels
Channel positions : Front: L R
Sampling rate : 44.1 KHz
Compression mode : Lossy
Stream size : 6.84 MiB (13%)
Source stream size : 6.84 MiB (13%)
Language : English
Encoded date : UTC 2010-10-22 22:58:49
Tagged date : UTC 2010-10-22 22:58:54

Menu
ID : 3
Language : English
Encoded date : UTC 2010-10-22 22:58:54
Tagged date : UTC 2010-10-22 22:58:54
Год издания: 22.10.2012
Продолжительность: 01:30:28
Источник: <a href="https://itunes.apple.com/gb/album/red-deluxe-version/id571637824" class="postLink">iTunes Store</a>
Наличие сканов в содержимом раздачи: Digital Booklet (2 версии)

Треклист:
01. State Of Grace (04:55)
02. Red (03:43)
03. Treacherous (04:02)
04. I Knew You Were Trouble (03:39)
05. All Too Well (05:29)
06. 22 (03:52)
07. I Almost Do (04:04)
08. We Are Never Ever Getting Back Together (03:13)
09. Stay Stay Stay (03:25)
10. The Last Time [Feat. Gary Lightbody Of Snow Patrol] (04:59)
11. Holy Ground (03:22)
12. Sad Beautiful Tragic (04:44)
13. The Lucky One (04:00)
14. Everything Has Changed [Feat. Ed Sheeran] (04:05)
15. Starlight (03:40)
16. Begin Again (03:57)
17. The Moment I Knew (04:47)
18. Come Back...Be Here (03:44)
19. Girl At Home (03:41)
20. Treacherous [Original Demo Recording] (04:00)
21. Red [Original Demo Recording] (03:47)
22. State Of Grace [Acoustic Version] (05:23)
Live Albums
Год издания: 15.01.2008
Продолжительность: 00:27:33
Источник: <a href="https://itunes.apple.com/us/album/itunes-live-from-soho/id271249520" class="postLink">iTunes Store</a>
Наличие сканов в содержимом раздачи: нет

Треклист:
01. Umbrella [Live] (01:32)
02. Our Song [Live] (03:31)
03. Teardrops On My Guitar [Live] (03:26)
04. Should've Said No [Live] (04:29)
05. A Place In This World [Live] (03:27)
06. Mary's Song (Oh My My My) [Live] (03:50)
07. Tim McGraw [Live] (04:03)
08. Pictures To Burn [Live] (03:33)
Год издания: 21.11.2011
Продолжительность: 03:28:33 (музыка - 01:19:07; видео - 02:09:26)
Источник: <a href="https://itunes.apple.com/us/album/speak-now-world-tour-live/id478449178" class="postLink">iTunes Store</a>
Наличие сканов в содержимом раздачи: нет

Треклист:
01. Sparks Fly [Live] (05:37)
02. Mine [Live] (04:19)
03. The Story Of Us [Live] (04:51)
04. Mean [Live] (04:06)
05. Ours [Live] (04:06)
06. Medley: Back To December / Apologize / You're Not Sorry [Live] (06:03)
07. Better Than Revenge [Live] (05:45)
08. Speak Now [Live] (04:08)
09. Last Kiss [Live] (06:09)
10. Drops Of Jupiter [Live] (05:15)
11. Bette Davis Eyes [Live] (03:09)
12. I Want You Back [Live] (01:23)
13. Dear John [Live] (06:45)
14. Enchanted [Live] (06:29)
15. Haunted [Live] (04:52)
16. Long Live [Live] (06:16)
Качество: WEB-DL
Продолжительность: 02:09:26
Формат: MPEG-4 (Контейнер m4v)
Видео: H.264, 640 x 480px @ 853 x 480px (16:9), 23.976 fps, ~1600 kbps, Anamorphic
Аудио: Английский (AAC Stereo, 256 Кбит/сек, 44,1 КГц)
Навигация по главам: английские названия, изображения
Format : MPEG-4
Codec ID : M4V
File size : 1.69 GiB
Duration : 2h 9mn
Overall bit rate mode : Variable
Overall bit rate : 1 868 Kbps
Movie name : Speak Now - World Tour Live Concert
Album : Speak Now - World Tour Live
Album/Performer : Taylor Swift
Track name/Position : 17
Track name/Total : 0
Performer : Taylor Swift
Genre : Country
Recorded date : UTC 2011-11-21 08:00:00
Encoded date : UTC 2011-11-11 11:56:43
Tagged date : UTC 2011-11-21 20:39:00
Copyright : ℗ (C) 2011 Big Machine Records, LLC.
Cover : Yes
cnID : 478450960
rtng : 0
atID : 20826
plID : 478449178
geID : 1606
akID : 0
stik : 6
sonm : Speak Now - World Tour Live Concert
iTunMOVI : <?xml version="1.0" encoding="UTF-8"?> / <!DOCTYPE plist PUBLIC "-//Apple//DTD PLIST 1.0//EN" "http://www.apple.com/DTDs/PropertyList-1.0.dtd"> / <plist version="1.0"> / <dict> / <key>asset-info</key> / <dict> / <key>file-size</key> / <integer>1813040995</integer> / <key>flavor</key> / <string>6:640x480LC-256</string> / <key>screen-format</key> / <string>widescreen</string> / </dict> / </dict> / </plist>

Video #1
ID : 1
Format : AVC
Format/Info : Advanced Video Codec
Format profile : <a href="mailto:Baseline@L3.0" class="postLink">Baseline@L3.0</a>
Format settings, CABAC : No
Format settings, ReFrames : 1 frame
Codec ID : avc1
Codec ID/Info : Advanced Video Coding
Duration : 2h 9mn
Bit rate : 1 601 Kbps
Width : 640 pixels
Height : 480 pixels
Display aspect ratio : 16:9
Frame rate mode : Constant
Frame rate : 23.976 fps
Color space : YUV
Chroma subsampling : 4:2:0
Bit depth : 8 bits
Scan type : Progressive
Bits/(Pixel*Frame) : 0.217
Stream size : 1.45 GiB (86%)
Language : English
Encoded date : UTC 2011-11-11 11:56:26
Tagged date : UTC 2011-11-11 12:00:18
Color primaries : BT.601-6 525, BT.1358 525, BT.1700 NTSC, SMPTE 170M
Transfer characteristics : BT.709-5, BT.1361
Matrix coefficients : BT.601-6 525, BT.1358 525, BT.1700 NTSC, SMPTE 170M

Video #2
ID : 4
Format : JPEG
Codec ID : jpeg
Duration : 2h 9mn
Bit rate mode : Variable
Bit rate : 3 768 bps
Width : 640 pixels
Height : 360 pixels
Display aspect ratio : 16:9
Frame rate mode : Variable
Frame rate : 0.002 fps
Minimum frame rate : 0.001 fps
Maximum frame rate : 0.004 fps
Compression mode : Lossy
Bits/(Pixel*Frame) : 8.177
Stream size : 4.04 MiB (0%)
Language : English
Encoded date : UTC 2011-11-11 11:56:27
Tagged date : UTC 2011-11-11 12:00:18

Audio
ID : 2
Format : AAC
Format/Info : Advanced Audio Codec
Format profile : LC
Codec ID : 40
Duration : 2h 9mn
Bit rate mode : Constant
Bit rate : 256 Kbps
Channel(s) : 2 channels
Channel positions : Front: L R
Sampling rate : 44.1 KHz
Compression mode : Lossy
Stream size : 239 MiB (14%)
Language : English
Encoded date : UTC 2011-11-11 11:56:27
Tagged date : UTC 2011-11-21 20:39:00

Text
ID : 3
Format : Timed text
Codec ID : tx3g
Duration : 2h 9mn
Source duration : 2h 9mn
Bit rate mode : Variable
Bit rate : 0 bps
Stream size : 223 Bytes (0%)
Source stream size : 223 Bytes (0%)
Language : English
Encoded date : UTC 2011-11-11 11:56:27
Tagged date : UTC 2011-11-11 12:00:18
EPs
Год издания: 01.01.2007
Продолжительность: 00:09:13
Источник: <a href="https://itunes.apple.com/be/album/teardrops-on-my-guitar-ep/id317723914" class="postLink">iTunes Store</a>
Наличие сканов в содержимом раздачи: нет

Треклист:
01. Teardrops On My Guitar (03:15)
02. Teardrops On My Guitar [Acoustic Version] (02:59)
03. Teardrops On My Guitar [Cahill Radio Edit] (03:01)
Год издания: 14.10.2007
Продолжительность: 00:19:04
Источник: <a href="https://itunes.apple.com/us/album/taylor-swift-holiday-collection/id296552366" class="postLink">iTunes Store</a>
Наличие сканов в содержимом раздачи: нет

Треклист:
01. Last Christmas (03:30)
02. Christmases When You Were Mine (03:06)
03. Santa Baby (02:41)
04. Silent Night (03:32)
05. Christmas Must Be Something More (03:54)
06. White Christmas (02:34)
Год издания: 16.10.2009
Продолжительность: 00:07:39
Источник: <a href="https://itunes.apple.com/be/album/you-belong-with-me-ep/id334411384" class="postLink">iTunes Store</a>
Наличие сканов в содержимом раздачи: нет

Треклист:
01. You Belong With Me [Pop Mix] (03:48)
02. You Belong With Me (03:52)
Karaoke
Год издания: 27.01.2009
Продолжительность: 00:51:52
Источник: <a href="https://itunes.apple.com/us/album/taylor-swift-karaoke-instrumentals/id302074708" class="postLink">iTunes Store</a>
Наличие сканов в содержимом раздачи: нет

Треклист:
01. Tim McGraw (03:54)
02. Picture To Burn (02:56)
03. Teardrops On My Guitar (03:34)
04. A Place In This World (03:29)
05. Cold As You (04:10)
06. The Outside (03:30)
07. Tied Together With A Smile (04:11)
08. Stay Beautiful (04:07)
09. Should've Said No (04:05)
10. Mary's Song [Oh My My My] (03:36)
11. Our Song (03:24)
12. I'm Only Me When I'm With You (03:43)
13. Invisible (03:26)
14. A Perfectly Good Heart (03:47)
Singles
Год издания: 06.01.2009
Битрейт аудио: 256 kbps
Продолжительность: 00:03:54
Источник: <a href="https://itunes.apple.com/us/album/love-story-pop-mix-single/id300719058" class="postLink">iTunes Store</a>
Наличие сканов в содержимом раздачи: нет

Треклист:
01. Love Story [Pop Mix] (03:54)
Год издания: 02.03.2009
Битрейт аудио: 256 kbps
Продолжительность: 00:11:26
Источник: <a href="https://itunes.apple.com/gb/album/love-story-remix-bundle-single/id304341615" class="postLink">iTunes Store</a>
Наличие сканов в содержимом раздачи: нет

Треклист:
01. Love Story [Digital Dog Remix] (05:59)
02. Love Story [J Stax Club Mix] (05:29)
Год издания: 05.03.2009
Битрейт аудио: 256 kbps
Продолжительность: 00:04:22
Источник: <a href="https://itunes.apple.com/us/album/youre-not-sorry-csi-remix/id307056209" class="postLink">iTunes Store</a>
Наличие сканов в содержимом раздачи: нет

Треклист:
01. You're Not Sorry [CSI Remix] (04:22)
Год издания: 13.07.2009
Битрейт аудио: 256 kbps
Продолжительность: 00:03:51
Источник: <a href="https://itunes.apple.com/be/album/you-belong-me-radio-mix-single/id323371463" class="postLink">iTunes Store</a>
Наличие сканов в содержимом раздачи: нет

Треклист:
01. You Belong With Me [Radio Mix] (03:51)
Год издания: 17.08.2011
Битрейт аудио: 256 kbps
Продолжительность: 00:03:51
Источник: <a href="https://itunes.apple.com/br/album/long-live-feat.-paula-fernandes/id507339468" class="postLink">iTunes Store</a>
Наличие сканов в содержимом раздачи: нет

Треклист:
01. Mine (03:51)
Год издания: 05.10.2010
Битрейт аудио: 256 kbps
Продолжительность: 00:04:02
Источник: <a href="https://itunes.apple.com/au/album/speak-now-single/id396131841" class="postLink">iTunes Store</a>
Наличие сканов в содержимом раздачи: нет

Треклист:
01. Speak Now (04:02)
Год издания: 12.10.2010
Битрейт аудио: 256 kbps
Продолжительность: 00:04:54
Источник: <a href="https://itunes.apple.com/au/album/back-to-december-single/id397361196" class="postLink">iTunes Store</a>
Наличие сканов в содержимом раздачи: нет

Треклист:
01. Back To December (04:54)
Год издания: 19.10.2010
Битрейт аудио: 256 kbps
Продолжительность: 00:03:59
Источник: <a href="https://itunes.apple.com/lu/album/mean-single/id398506133" class="postLink">iTunes Store</a>
Наличие сканов в содержимом раздачи: нет

Треклист:
01. Mean (03:59)
Год издания: 08.11.2011
Битрейт аудио: 256 kbps
Продолжительность: 00:03:58
Источник: <a href="https://itunes.apple.com/us/album/ours-single/id475655679" class="postLink">iTunes Store</a>
Наличие сканов в содержимом раздачи: нет

Треклист:
01. Ours (03:58)
Год издания: 08.11.2011
Битрейт аудио: 256 kbps
Продолжительность: 00:03:54
Источник: <a href="https://itunes.apple.com/us/album/if-this-was-a-movie-single/id475655794" class="postLink">iTunes Store</a>
Наличие сканов в содержимом раздачи: нет

Треклист:
01. If This Was A Movie (03:54)
Год издания: 08.11.2011
Битрейт аудио: 256 kbps
Продолжительность: 00:04:36
Источник: <a href="https://itunes.apple.com/us/album/superman-single/id475655086" class="postLink">iTunes Store</a>
Наличие сканов в содержимом раздачи: нет

Треклист:
01. Superman (04:36)
Год издания: 08.11.2011
Битрейт аудио: 256 kbps
Продолжительность: 00:04:52
Источник: <a href="https://itunes.apple.com/us/album/back-to-december-acoustic/id475655712" class="postLink">iTunes Store</a>
Наличие сканов в содержимом раздачи: нет

Треклист:
01. Back To December [Acoustic Version] (04:52)
Год издания: 08.11.2011
Битрейт аудио: 256 kbps
Продолжительность: 00:03:37
Источник: <a href="https://itunes.apple.com/us/album/back-to-december-acoustic/id475655712" class="postLink">iTunes Store</a>
Наличие сканов в содержимом раздачи: нет

Треклист:
01. Haunted [Acoustic Version] (03:37)
Год издания: 08.11.2011
Битрейт аудио: 256 kbps
Продолжительность: 00:03:50
Источник: <a href="https://itunes.apple.com/us/album/back-to-december-acoustic/id475655712" class="postLink">iTunes Store</a>
Наличие сканов в содержимом раздачи: нет

Треклист:
01. Mine [Pop Mix] (03:50)
Год издания: 31.12.2011
Битрейт аудио: 256 kbps
Продолжительность: 00:05:16
Источник: <a href="https://itunes.apple.com/br/album/long-live-feat.-paula-fernandes/id507339468" class="postLink">iTunes Store</a>
Наличие сканов в содержимом раздачи: нет

Треклист:
01. Long Live [feat. Paula Fernandes] (05:16)
Год издания: 14.08.2012
Битрейт аудио: 256 kbps
Продолжительность: 00:03:12
Источник: <a href="https://itunes.apple.com/gb/album/we-are-never-ever-getting/id552911687" class="postLink">iTunes Store</a>
Наличие сканов в содержимом раздачи: нет

Треклист:
01. We Are Never Ever Getting Back Together (03:12)
Год издания: 25.09.2012
Битрейт аудио: 256 kbps
Продолжительность: 00:03:58
Источник: <a href="https://itunes.apple.com/gb/album/begin-again-single/id564270977" class="postLink">iTunes Store</a>
Наличие сканов в содержимом раздачи: нет

Треклист:
01. Begin Again (03:58)
Год издания: 02.10.2012
Битрейт аудио: 256 kbps
Продолжительность: 00:03:43
Источник: <a href="https://itunes.apple.com/gb/album/red-single/id566533813" class="postLink">iTunes Store</a>
Наличие сканов в содержимом раздачи: нет

Треклист:
01. Red (03:43)
Год издания: 09.10.2012
Битрейт аудио: 256 kbps
Продолжительность: 00:03:40
Источник: iTunes Store
Наличие сканов в содержимом раздачи: нет

Треклист:
01. I Knew You Were Trouble. (03:40)
Год издания: 16.10.2012
Битрейт аудио: 256 kbps
Продолжительность: 00:04:56
Источник: <a href="https://itunes.apple.com/gb/album/state-of-grace-single/id570161428" class="postLink">iTunes Store</a>
Наличие сканов в содержимом раздачи: нет

Треклист:
01. State Of Grace (04:56)
Год издания: 19.01.2010
Битрейт аудио: 256 kbps
Продолжительность: 00:04:02
Источник: <a href="https://itunes.apple.com/us/album/today-was-a-fairytale-single/id417966403" class="postLink">iTunes Store</a>
Наличие сканов в содержимом раздачи: нет

Треклист:
01. Today Was A Fairytale (04:02)
Год издания: 19.01.2010
Битрейт аудио: 256 kbps
Продолжительность: 00:04:02
Источник: <a href="https://itunes.apple.com/au/album/today-was-a-fairytale-single/id350563351" class="postLink">iTunes Store</a>
Наличие сканов в содержимом раздачи: нет

Треклист:
01. Today Was A Fairytale (04:02)
Год издания: 26.12.2011
Битрейт аудио: 256 kbps
Продолжительность: 00:04:02
Источник: <a href="https://itunes.apple.com/jp/album/safe-sound-from-hunger-games/id491053466" class="postLink">iTunes Store</a>
Наличие сканов в содержимом раздачи: нет

Треклист:
01. Safe & Sound [feat. The Civil Wars] (04:02)
Год издания: 20.03.2012
Битрейт аудио: 256 kbps
Продолжительность: 00:04:05
Источник: <a href="https://itunes.apple.com/gb/album/hunger-games-songs-from-district/id507989323" class="postLink">iTunes Store</a>
Наличие сканов в содержимом раздачи: нет

Треклист:
01. Eyes Open (04:05)
Год издания: 08.09.2012
Битрейт аудио: 256 kbps
Продолжительность: 00:04:56
Источник: <a href="https://itunes.apple.com/us/album/ronan-single/id560227510" class="postLink">iTunes Store</a>
Наличие сканов в содержимом раздачи: нет

Треклист:
01. Ronan (04:56)


Трекер:  [ 08-Янв-2013 17:33 ]

  

Скачать .torrent

Размер .torrent файла 124 KB


Размер: 5.14 GB
Хэш (hash) релиза: d134aab4bc53e544442fcf79aae03c0bbb3742eb

Еще никто не оставлял запись к записи скачать торрент Taylor Swift - Дискография iTunes Discography - 2006-2012 . Будь первым!

!Обратная связь