Скачать через торрент Foo Fighters - ДискографияiTunes Discography - 1995-2011 бесплатно русская версия torrent активатор

Если у вас наблюдаются проблемы со скриншотами, переходом по ссылками, скачиванием торрентов - проблемы в блокировщике рекламы AdBlock. #хорошегоДня!


Статистика раздачи
Размер:  1.35 GB   |    Зарегистрирован:  4 года 9 месяцев   |    .torrent скачан:  44 раза   |   
Раздают:  1  
   
Загрузка...
 
Автор Сообщение

L


Foo Fighters - iTunes Discography

Жанр: Country, Pop || Страна: USA || Год издания: 1995-2011 || Издатель (лейбл): Roswell Records Inc., RCA Records || Аудио кодек: AAC ||Тип рипа: tracks
Битрейт аудио: 256 kbps || Продолжительность: 10:12:05 || Источник: <a href="https://itunes.apple.com/us/artist/foo-fighters/id6906197" class="postLink">iTunes Store</a> || Вшитые тексты: не добавленыAlbums
Год издания: 04.07.1995
Продолжительность: 00:44:02
Источник: <a href="https://itunes.apple.com/us/album/foo-fighters/id258512042" class="postLink">iTunes Store</a>
Наличие сканов в содержимом раздачи: нет

Треклист:
01. This Is A Call (03:53)
02. I'll Stick Around (03:53)
03. Big Me (02:13)
04. Alone+Easy Target (04:06)
05. Good Grief (04:01)
06. Floaty (04:29)
07. Weenie Beenie (02:45)
08. Oh, George (03:02)
09. For All The Cows (03:29)
10. X-Static (04:13)
11. Wattershed (02:14)
12. Exhausted (05:50)
Год издания: 20.05.1997
Продолжительность: 01:13:39
Источник: <a href="https://itunes.apple.com/gb/album/colour-shape-special-edition/id257736651" class="postLink">iTunes Store</a>
Наличие сканов в содержимом раздачи: нет

Треклист:
01. Doll (1:24)
02. Monkey Wrench (03:51)
03. Hey, Johnny Park! (04:08)
04. My Poor Brain (03:33)
05. Wind Up (02:31)
06. Up In Arms (02:15)
07. My Hero (04:20)
08. See You (02:27)
09. Enough Space (02:36)
10. February Stars (04:49)
11. Everlong (04:10)
12. Walking After You (05:04)
13. New Way Home (05:40)
14. Requiem (03:33)
15. Drive Me Wild (03:14)
16. Down In The Park (04:09)
17. Baker Street (05:37)
18. Dear Lover (04:32)
19. The Colour And The Shape (03:23)
20. See You (Acoustic) [Bonus Track] (02:28)
Год издания: 26.10.1999
Продолжительность: 00:46:11
Источник: <a href="https://itunes.apple.com/us/album/there-is-nothing-left-to-lose/id278229648" class="postLink">iTunes Store</a>
Наличие сканов в содержимом раздачи: нет

Треклист:
01. Stacked Actors (04:16)
02. Breakout (03:21)
03. Learn To Fly (03:55)
04. Gimme Stitches (03:42)
05. Generator (03:47)
06. Aurora (05:50)
07. Live-In Skin (03:53)
08. Next Year (04:36)
09. Headwires (04:37)
10. Ain't It The Life (04:15)
11. M.I.A. (04:03)
Год издания: 21.10.2002
Продолжительность: 00:54:54
Источник: <a href="https://itunes.apple.com/us/album/one-by-one/id250494531" class="postLink">iTunes Store</a>
Наличие сканов в содержимом раздачи: нет

Треклист:
01. All My Life (04:23)
02. Low (04:28)
03. Have It All (04:58)
04. Time Like These (04:26)
05. Disenchanted Lullaby (04:33)
06. Tired Of You (05:11)
07. Halo (05:06)
08. Lonely As You (04:37)
09. Overdrive (04:30)
10. Burn Away (04:58)
11. Come Back (07:50)
Год издания: 13.06.2005
Продолжительность: 01:27:17
Источник: <a href="https://itunes.apple.com/us/album/in-your-honor/id300855107" class="postLink">iTunes Store</a>
Наличие сканов в содержимом раздачи: нет

Треклист:
CD1
01. In Your Honor (03:50)
02. No Way Back (03:17)
03. Best Of You (04:16)
04. DOA (04:12)
05. Hell (01:57)
06. The Last Song (03:19)
07. Free Me (04:39)
08. Resolve (04:49)
09. The Deepest Blues Are Black (03:58)
10. End Over End (5:52)
11. The Sign (04:02)
CD2
01. Still (05:13)
02. What If I Do? (05:03)
03. Miracle (03:30)
04. Another Round (04:26)
05. Friend Of A Friend (03:13)
06. Over And Out (05:16)
07. On The Mend (04:32)
08. Virginia Moon (03:49)
09. Cold Day In The Sun (03:21)
10. Razor (04:53)
Год издания: 25.09.2007
Продолжительность: 00:54:52
Источник: <a href="https://itunes.apple.com/us/album/echoes-silence-patience-grace/id263094258" class="postLink">iTunes Store</a>
Наличие сканов в содержимом раздачи: Digital Booklet

Треклист:
01. The Pretender (04:29)
02. Let It Die (04:05)
03. Erase / Replace (04:13)
04. Long Road To Ruin (03:45)
05. Come Alive (05:11)
06. Stranger Things Have Happened (05:21)
07. Cheer Up, Boys (Your Make Up Is Running) (03:41)
08. Summer's End (04:38)
09. Ballad Of The Beaconsfield Miners (02:32)
10. Statues (03:48)
11. But, Honestly (04:36)
12. Home (04:53)
13. Once & For All [Demo] (03:48)
Год издания: 08.04.2011
Продолжительность: 01:10:06 (музыка - 00:57:50; видео - 00:12:16)
Источник: <a href="https://itunes.apple.com/us/album/wasting-light-deluxe-version/id430070792" class="postLink">iTunes Store</a>
Наличие сканов в содержимом раздачи: Digital Booklet

Треклист:
01. Bridge Burning (04:46)
02. Rope (04:19)
03. Dear Rosemary (04:26)
04. White Limo (03:22)
05. Arlandria (04:28)
06. These Days (04:58)
07. Back & Forth (03:52)
08. A Matter Of Time (04:36)
09. Miss The Misery (04:33)
10. I Should Have Known (04:15)
11. Walk (04:15)
12. Rope (Deadmau5 Mix) (05:52)
13. Better Off (04:12)
Качество: WEB-DL
Продолжительность: 00:03:35
Формат: MPEG-4 (Контейнер m4v)
Видео: H.264, 640 x 448 (1.429), 29.970 fps, ~1504 Kbps Kbps,
Аудио: Английский (AAC Stereo, 256 Кбит/сек, 44,1 КГц)
Format : MPEG-4
Codec ID : M4V
File size : 46.1 MiB
Duration : 3mn 34s
Overall bit rate : 1 800 Kbps
Movie name : White Limo
Album : Wasting Light (Deluxe Version)
Album/Performer : Foo Fighters
Track name/Position : 14
Track name/Total : 0
Performer : Foo Fighters
Genre : Rock
Recorded date : UTC 2011-03-29 07:00:00
Encoded date : UTC 2011-03-16 19:14:50
Tagged date : UTC 2011-03-16 19:21:14
Writing library : Apple QuickTime
Cover : Yes
apID : <a href="mailto:i_plus4u@yahoo.com" class="postLink">i_plus4u@yahoo.com</a>
cnID : 426773884
rtng : 0
atID : 6906197
geID : 1621
sfID : 143441
akID : 0
stik : 6
purd : 2011-03-29 11:36:19
xid : SonyBMG:isrc:USALF1100001
iTunMOVI : <?xml version="1.0" encoding="UTF-8"?> / <!DOCTYPE plist PUBLIC "-//Apple//DTD PLIST 1.0//EN" "http://www.apple.com/DTDs/PropertyList-1.0.dtd"> / <plist version="1.0"> / <dict> / <key>asset-info</key> / <dict> / <key>file-size</key> / <integer>48296261</integer> / <key>flavor</key> / <string>6:640x480LC-256</string> / </dict> / </dict> / </plist>

Video
ID : 1
Format : AVC
Format/Info : Advanced Video Codec
Format profile : <a href="mailto:Baseline@L3.0" class="postLink">Baseline@L3.0</a>
Format settings, CABAC : No
Format settings, ReFrames : 1 frame
Codec ID : avc1
Codec ID/Info : Advanced Video Coding
Duration : 3mn 34s
Bit rate : 1 504 Kbps
Width : 640 pixels
Height : 448 pixels
Display aspect ratio : 1.429
Frame rate mode : Constant
Frame rate : 29.970 fps
Color space : YUV
Chroma subsampling : 4:2:0
Bit depth : 8 bits
Scan type : Progressive
Bits/(Pixel*Frame) : 0.175
Stream size : 38.5 MiB (84%)
Language : English
Encoded date : UTC 2011-03-16 19:21:10
Tagged date : UTC 2011-03-16 19:21:14
Color primaries : BT.601-6 525, BT.1358 525, BT.1700 NTSC, SMPTE 170M
Transfer characteristics : BT.709-5, BT.1361
Matrix coefficients : BT.601-6 525, BT.1358 525, BT.1700 NTSC, SMPTE 170M

Audio
ID : 2
Format : AAC
Format/Info : Advanced Audio Codec
Format profile : LC
Codec ID : 40
Duration : 3mn 34s
Source duration : 3mn 34s
Bit rate mode : Constant
Bit rate : 256 Kbps
Channel(s) : 2 channels
Channel positions : Front: L R
Sampling rate : 44.1 KHz
Compression mode : Lossy
Stream size : 6.44 MiB (14%)
Source stream size : 6.44 MiB (14%)
Language : English
Encoded date : UTC 2011-03-16 19:21:10
Tagged date : UTC 2011-03-16 19:21:14

Menu
ID : 3
Language : English
Encoded date : UTC 2011-03-16 19:21:14
Tagged date : UTC 2011-03-16 19:21:14
Качество: WEB-DL
Продолжительность: 00:04:23
Формат: MPEG-4 (Контейнер m4v)
Видео: H.264, 640 x 480px @ 853 x 480px (16:9), 23.976 fps, ~1586 kbps, Anamorphic,
Аудио: Английский (AAC Stereo, 256 Кбит/сек, 44,1 КГц)
Format : MPEG-4
Codec ID : M4V
File size : 59.1 MiB
Duration : 4mn 23s
Overall bit rate : 1 883 Kbps
Movie name : Walk (Live At The Roxy)
Album : Wasting Light (Deluxe Version)
Album/Performer : Foo Fighters
Track name/Position : 15
Track name/Total : 0
Performer : Foo Fighters
Genre : Rock
Recorded date : UTC 2011-04-08 07:00:00
Encoded date : UTC 2011-04-01 23:00:29
Tagged date : UTC 2011-04-01 23:00:30
Cover : Yes
apID : <a href="mailto:summergirl25-anika@web.de" class="postLink">summergirl25-anika@web.de</a>
cnID : 430071494
rtng : 0
atID : 430071498
plID : 430070792
geID : 1621
sfID : 143443
akID : 0
stik : 6
purd : 2011-04-08 04:06:01
sonm : Walk
xid : SonyBMG:isrc:USALF1100002
iTunMOVI : <?xml version="1.0" encoding="UTF-8"?> / <!DOCTYPE plist PUBLIC "-//Apple//DTD PLIST 1.0//EN" "http://www.apple.com/DTDs/PropertyList-1.0.dtd"> / <plist version="1.0"> / <dict> / <key>asset-info</key> / <dict> / <key>file-size</key> / <integer>61933856</integer> / <key>flavor</key> / <string>6:640x480LC-256</string> / <key>screen-format</key> / <string>widescreen</string> / </dict> / </dict> / </plist>

Video
ID : 1
Format : AVC
Format/Info : Advanced Video Codec
Format profile : <a href="mailto:Baseline@L3.0" class="postLink">Baseline@L3.0</a>
Format settings, CABAC : No
Format settings, ReFrames : 1 frame
Codec ID : avc1
Codec ID/Info : Advanced Video Coding
Duration : 4mn 23s
Bit rate : 1 586 Kbps
Width : 640 pixels
Height : 480 pixels
Display aspect ratio : 16:9
Frame rate mode : Constant
Frame rate : 23.976 fps
Color space : YUV
Chroma subsampling : 4:2:0
Bit depth : 8 bits
Scan type : Progressive
Bits/(Pixel*Frame) : 0.215
Stream size : 49.8 MiB (84%)
Language : English
Encoded date : UTC 2011-04-01 23:00:29
Tagged date : UTC 2011-04-01 23:00:30
Color primaries : BT.601-6 525, BT.1358 525, BT.1700 NTSC, SMPTE 170M
Transfer characteristics : BT.709-5, BT.1361
Matrix coefficients : BT.601-6 525, BT.1358 525, BT.1700 NTSC, SMPTE 170M

Audio
ID : 2
Format : AAC
Format/Info : Advanced Audio Codec
Format profile : LC
Codec ID : 40
Duration : 4mn 23s
Source duration : 4mn 23s
Bit rate mode : Constant
Bit rate : 256 Kbps
Channel(s) : 2 channels
Channel positions : Front: L R
Sampling rate : 44.1 KHz
Compression mode : Lossy
Stream size : 8.12 MiB (14%)
Source stream size : 8.12 MiB (14%)
Language : English
Encoded date : UTC 2011-04-01 23:00:29
Tagged date : UTC 2011-04-01 23:00:30
Качество: WEB-DL
Продолжительность: 00:04:19
Формат: MPEG-4 (Контейнер m4v)
Видео: H.264, 640 x 464 (1.379), 29.970 fps, ~1 464 Kbps
Аудио: Английский (AAC Stereo, 256 Кбит/сек, 44,1 КГц)
Format : MPEG-4
Codec ID : M4V
File size : 54.2 MiB
Duration : 4mn 19s
Overall bit rate : 1 754 Kbps
Movie name : Rope
Album : Wasting Light (Deluxe Version)
Album/Performer : Foo Fighters
Track name/Position : 16
Track name/Total : 0
Performer : Foo Fighters
Genre : Rock
Recorded date : UTC 2011-03-13 08:00:00
Encoded date : UTC 2011-03-10 19:54:13
Tagged date : UTC 2011-03-10 19:59:16
Writing library : Apple QuickTime
Cover : Yes
apID : <a href="mailto:i_plus4u@yahoo.com" class="postLink">i_plus4u@yahoo.com</a>
cnID : 425427203
rtng : 0
atID : 6906197
geID : 1621
sfID : 143441
akID : 0
stik : 6
purd : 2011-03-15 07:48:34
xid : SonyBMG:isrc:USALF1100003
iTunMOVI : <?xml version="1.0" encoding="UTF-8"?> / <!DOCTYPE plist PUBLIC "-//Apple//DTD PLIST 1.0//EN" "http://www.apple.com/DTDs/PropertyList-1.0.dtd"> / <plist version="1.0"> / <dict> / <key>asset-info</key> / <dict> / <key>file-size</key> / <integer>56794104</integer> / <key>flavor</key> / <string>6:640x480LC-256</string> / </dict> / </dict> / </plist>

Video
ID : 1
Format : AVC
Format/Info : Advanced Video Codec
Format profile : <a href="mailto:Baseline@L3.0" class="postLink">Baseline@L3.0</a>
Format settings, CABAC : No
Format settings, ReFrames : 1 frame
Codec ID : avc1
Codec ID/Info : Advanced Video Coding
Duration : 4mn 19s
Bit rate : 1 464 Kbps
Width : 640 pixels
Height : 464 pixels
Display aspect ratio : 1.379
Frame rate mode : Constant
Frame rate : 29.970 fps
Color space : YUV
Chroma subsampling : 4:2:0
Bit depth : 8 bits
Scan type : Progressive
Bits/(Pixel*Frame) : 0.165
Stream size : 45.2 MiB (83%)
Language : English
Encoded date : UTC 2011-03-10 19:59:12
Tagged date : UTC 2011-03-10 19:59:16
Color primaries : BT.601-6 525, BT.1358 525, BT.1700 NTSC, SMPTE 170M
Transfer characteristics : BT.709-5, BT.1361
Matrix coefficients : BT.601-6 525, BT.1358 525, BT.1700 NTSC, SMPTE 170M

Audio
ID : 2
Format : AAC
Format/Info : Advanced Audio Codec
Format profile : LC
Codec ID : 40
Duration : 4mn 19s
Source duration : 4mn 19s
Bit rate mode : Constant
Bit rate : 256 Kbps
Channel(s) : 2 channels
Channel positions : Front: L R
Sampling rate : 44.1 KHz
Compression mode : Lossy
Stream size : 7.78 MiB (14%)
Source stream size : 7.78 MiB (14%)
Language : English
Encoded date : UTC 2011-03-10 19:59:12
Tagged date : UTC 2011-03-10 19:59:16

Menu
ID : 3
Language : English
Encoded date : UTC 2011-03-10 19:59:16
Tagged date : UTC 2011-03-10 19:59:16
Live Albums
Год издания: 12.12.2006
Продолжительность: 01:17:44
Источник: <a href="https://itunes.apple.com/us/album/skin-and-bones-live/id203151591" class="postLink">iTunes Store</a>
Наличие сканов в содержимом раздачи: Нет

Треклист:
01. Razor (06:48)
02. Over And Out (05:57)
03. Walking After You (05:19)
04. Marigold (03:20)
05. My Hero (04:51)
06. Next Year (04:35)
07. Another Round (04:55)
08. Big Me (03:02)
09. Cold Day In The Sun (03:26)
10. Skin And Bones (04:01)
11. February Stars (05:51)
12. Times Like These (05:25)
13. Friend Of A Friend (04:02)
14. Best Of You (05:03)
15. Everlong (06:35)
16. Ain't It The Life (04:42)
EPs
Год издания: 22.07.2011
Продолжительность: 00:30:14

Треклист:
01. The Pretender [Live] (05:35)
02. White Limo [Live] (03:14)
03. Arlandria [Live] (05:44)
04. Walk [Live] (04:28)
05. These Days [Live] (05:51)
06. Everlong [Live] (05:23)
Compilations
Год издания: 30.10.2009
Битрейт аудио: 256 kbps
Продолжительность: 01:03:31
Источник: <a href="https://itunes.apple.com/us/album/foo-fighters-greatest-hits/id334450811" class="postLink">iTunes Store</a>
Наличие сканов в содержимом раздачи: Digital Booklet

Треклист:
01. All My Life (04:24)
02. Best Of You (04:16)
03. Everlong (04:10)
04. The Pretender (04:27)
05. My Hero (04:18)
06. Learn To Fly (03:56)
07. Times Like These (04:27)
08. Monkey Wrench (03:52)
09. Big Me (02:14)
10. Breakout (03:21)
11. Long Road To Ruin (03:48)
12. This Is A Call (03:54)
13. Skin And Bones (04:03)
14. Wheels (04:38)
15. Word Forward (03:48)
16. Everlong [Acoustic] (04:10)
Singles
Год издания: 25.09.2009
Битрейт аудио: 256 kbps
Продолжительность: 00:04:02
Источник: <a href="https://itunes.apple.com/au/album/wheels-single/id332123235" class="postLink">iTunes Store</a>
Наличие сканов в содержимом раздачи: нет

Треклист:
01. Wheels (04:02)
Год издания: 08.04.2011
Битрейт аудио: 256 kbps
Продолжительность: 00:04:58
Источник: релиз более не доступен для покупки
Наличие сканов в содержимом раздачи: нет

Треклист:
01. These Days (04:58)
Дополнительная информация:
Foo Fighters — американская альтернативная рок-группа, образованная бывшим участником рок-группы Nirvana Дейвом Гролом в 1995 году. Название позаимствовано из сленга американских лётчиков второй мировой войны, которые называли так (foo-истребители) неопознанные летающие объекты и странные атмосферные феномены, которые они видели в небе над Европой и Тихим океаном.
У группы 7 студийных альбомов, последний из которых - Wasting Light (записанный в сотрудничестве с Бутчем Вигом - барабанщиком Garbage и продюсером многих культовых рок-альбомов 90-х) - получил 5 статуэток Грэмми.
В представленной Вашему вниманию дискографии находятся только оригинальные релизы iTunes Plus, купленные в различных региональных iTunes Store: USA, UK, Japan, Brasil и других. Дискография будет пополняться путем обновления раздачи: будут добавляться старые и новые синглы, EP, а также другие релизы Foo Fighters, размещенные в цифровом магазине контента iTunes.
Данный материал предоставлен исключительно в ознакомительных целях! Рекомендую приобрести лицензионную продукцию!

Трекер:  [ 08-Янв-2013 17:32 ]

  

Скачать .torrent

Размер .torrent файла 30 KB


Размер: 1.35 GB
Хэш (hash) релиза: 127974521d4cfab1c05acf41dd854f1a745ffca0

Еще никто не оставлял запись к записи скачать торрент Foo Fighters - ДискографияiTunes Discography - 1995-2011 . Будь первым!

!Обратная связь