Скачать через торрент музыку 10cc - Bloody Tourists - 1978 бесплатно без регистрации torrent

Если у вас наблюдаются проблемы со скриншотами, переходом по ссылками, скачиванием торрентов - проблемы в блокировщике рекламы AdBlock. #хорошегоДня!


Статистика раздачи
Размер:  342 MB   |    Зарегистрирован:  4 года 7 месяцев   |    .torrent скачан:  35 раз   |   
Раздают:  1  
   
Загрузка...
 
Автор Сообщение

L


10cc / Bloody Tourists

Жанр: Classic Rock & Hard Rock
Страна-производитель диска: Japan
Год издания: 1978 (1997) Remaster
Издатель (лейбл): Jasrac
Номер по каталогу: PHR-4420 Mercury
Аудиокодек: FLAC (*.flac)
Тип рипа: image+.cue
Битрейт аудио: lossless
Продолжительность: 0:54:58.35 h:m:s.f
Источник (релизер): pazanenok
Наличие сканов в содержимом раздачи: нет
Треклист:
01. Dreadlock Holiday
02. For You And I
03. Take These Chains
04. Shock On The Tube (Don't Want Love)
05. Last Night
06. Anonymous Alcoholic
07. Reds In My Bed
08. Lifeline
09. Tokyo
10. Old Mister Time
11. From Rochdale To Ocho Rios
12. Everything You Wanted To Know About!!!
13. Nothing Can Move Me (Extra Track)
Exact Audio Copy V1.0 beta 3 from 29. August 2011

Отчёт EAC об извлечении, выполненном 8. января 2013, 0:28

10cc / Bloody Tourists

Дисковод: HL-DT-STDVDRAM GH22NS50 Adapter: 2 ID: 1

Режим чтения : ДостоверностьИспользование точного потока : ДаОтключение кэша аудио : ДаИспользование указателей C2 : Нет

Коррекция смещения при чтении : 667Способность читать области Lead-in и Lead-out : НетЗаполнение пропущенных сэмплов тишиной : ДаУдаление блоков с тишиной в начале и конце : НетПри вычислениях CRC использовались нулевые сэмплы : ДаИнтерфейс : Встроенный Win32-интерфейс для Win NT/2000

Выходной формат : Пользовательский кодировщикВыбранный битрейт : 768 kBit/sКачество : ВысокийДобавление ID3-тега : НетУтилита сжатия : C:\Program Files\Exact Audio Copy\FLAC\FLAC.EXEДополнительные параметры : -6 -V -T "ARTIST=%artist%" -T "TITLE=%title%" -T "ALBUM=%albumtitle%" -T "DATE=%year%" -T "TRACKNUMBER=%tracknr%" -T "GENRE=%genre%" -T "COMMENT=%comment%" -T "BAND=%albuminterpret%" -T "ALBUMARTIST=%albuminterpret%" -T "COMPOSER=%composer%" %haslyrics%--tag-from-file=LYRICS="%lyricsfile%"%haslyrics% -T "DISCNUMBER=%cdnumber%" -T "TOTALDISCS=%totalcds%" -T "TOTALTRACKS=%numtracks%" %hascover%--picture="%coverfile%"%hascover% %source% -o %dest%

TOC извлечённого CD

Трек | Старт | Длительность | Начальный сектор | Конечный сектор --------------------------------------------------------------------- 1 | 0:00.00 | 4:31.05 | 0 | 20329 2 | 4:31.05 | 5:25.40 | 20330 | 44744 3 | 9:56.45 | 2:41.35 | 44745 | 56854 4 | 12:38.05 | 3:48.40 | 56855 | 73994 5 | 16:26.45 | 3:20.27 | 73995 | 89021 6 | 19:46.72 | 5:51.13 | 89022 | 115359 7 | 25:38.10 | 4:14.45 | 115360 | 134454 8 | 29:52.55 | 3:30.50 | 134455 | 150254 9 | 33:23.30 | 4:33.20 | 150255 | 170749 10 | 37:56.50 | 4:36.62 | 170750 | 191511 11 | 42:33.37 | 3:48.58 | 191512 | 208669 12 | 46:22.20 | 4:31.37 | 208670 | 229031 13 | 50:53.57 | 4:04.53 | 229032 | 247384

Характеристики диапазона извлечения и сообщения об ошибках

Выбранный диапазон

Имя файла E:\РАЗДАЧИ\10cc - Bloody Tourists - 1978\10cc - Bloody Tourists.wav

Пиковый уровень 100.0 % Скорость извлечения 1.7 X Качество диапазона 99.9 % CRC копии 049842D8 Копирование... OK

Ошибок не произошло

AccurateRip: сводка

Трек 1 точность не определена (достоверность 25) [15CD2DFC], AccurateRip вернул [4201C9BF] (AR v2)Трек 2 точность не определена (достоверность 24) [FE668D9B], AccurateRip вернул [C3C60E7D] (AR v2)Трек 3 точность не определена (достоверность 23) [016E1BC7], AccurateRip вернул [4FCFE8AB] (AR v2)Трек 4 точность не определена (достоверность 24) [30E55CFF], AccurateRip вернул [99D434A8] (AR v2)Трек 5 точность не определена (достоверность 24) [447363C5], AccurateRip вернул [1A759A3D] (AR v2)Трек 6 точность не определена (достоверность 24) [451560CD], AccurateRip вернул [733DEF34] (AR v2)Трек 7 точность не определена (достоверность 24) [2C0DA6B4], AccurateRip вернул [1E9C81DD] (AR v2)Трек 8 точность не определена (достоверность 24) [B9B2DDB8], AccurateRip вернул [6FEFC627] (AR v2)Трек 9 точность не определена (достоверность 24) [CC794D28], AccurateRip вернул [7C76059E] (AR v2)Трек 10 точность не определена (достоверность 24) [FB0B2A7F], AccurateRip вернул [D234E162] (AR v2)Трек 11 точность не определена (достоверность 24) [A899593C], AccurateRip вернул [1935F9B3] (AR v2)Трек 12 точность не определена (достоверность 23) [7CB71F80], AccurateRip вернул [E38EC1B6] (AR v2)Трек 13 точность не определена (достоверность 23) [4D235569], AccurateRip вернул [6DA3C308] (AR v2)

Ни один трек не прошёл проверки на точностьВ вашей базе может быть иной вариант штамповки диска

Конец отчёта
Доп. информация: Сканера нет.

Трекер:  [ 08-Янв-2013 07:33 ]

  

Скачать .torrent

Размер .torrent файла 14 KB


Размер: 342 MB
Хэш (hash) релиза: 03e52dffa47c4aad5bb7e266048fbfb8f20971d8

Еще никто не оставлял запись к записи скачать торрент 10cc - Bloody Tourists - 1978 . Будь первым!

!Обратная связь