Скачать через торрент музыку Hardline - Double Eclipse бесплатно без регистрации torrent

Если у вас наблюдаются проблемы со скриншотами, переходом по ссылками, скачиванием торрентов - проблемы в блокировщике рекламы AdBlock. #хорошегоДня!


Статистика раздачи
Размер:  604 MB   |    Зарегистрирован:  4 года 7 месяцев   |    .torrent скачан:  35 раз   |   
Раздают:  1  
   
Загрузка...
 
Автор Сообщение

L


Hardline / Double Eclipse (Japan Press MVCM-174)

Жанр: Melodic Hard Rock
Страна-производитель диска: Japan
Год издания: 1992
Издатель (лейбл): MCA Victor
Номер по каталогу: MVCM-174
Аудиокодек: APE (*.ape)
Тип рипа: image+.cue
Битрейт аудио: lossless
Продолжительность: 56:59
Источник (релизер): Моя собственность
Наличие сканов в содержимом раздачи: да (600dpi)

Трэклист:
01. Life's A Bithc
02. Dr. Love
03. Love Leads The Way (Japan Bonus)
04. Rhythm From A Red Car
05. Change of Heart
06. Everything
07. Takin' Me Down
08. Hot Cherie
09. Bad Taste
10. Can't Find My Way
11. I'll Be There
12. 31-91
13. In The Hands Of Time

P.S. 03. Love Leads The Way (Japan Bonus). Хех даже незнаю почему эту песенку не написали на обложке....хотя просмотрел некоторые издания...и тоже её на обложке этих изданий не видел )))
Exact Audio Copy V1.0 beta 3 from 29. August 2011

Отчёт EAC об извлечении, выполненном 22. июня 2012, 23:14

Hardline / Double Eclipse (Japan 1st Press)

Дисковод: Optiarc DVD RW AD-5200S Adapter: 5 ID: 0

Режим чтения : ДостоверностьИспользование точного потока : ДаОтключение кэша аудио : ДаИспользование указателей C2 : Нет

Коррекция смещения при чтении : 48Способность читать области Lead-in и Lead-out : НетЗаполнение пропущенных сэмплов тишиной : ДаУдаление блоков с тишиной в начале и конце : НетПри вычислениях CRC использовались нулевые сэмплы : ДаИнтерфейс : Встроенный Win32-интерфейс для Win NT/2000

Выходной формат : Пользовательский кодировщикВыбранный битрейт : 128 kBit/sКачество : ВысокийДобавление ID3-тега : НетУтилита сжатия : C:\Program Files (x86)\Monkey's Audio\MAC.exeДополнительные параметры : %source% %dest% -c3000

TOC извлечённого CD

Трек | Старт | Длительность | Начальный сектор | Конечный сектор --------------------------------------------------------------------- 1 | 0:00.00 | 4:22.15 | 0 | 19664 2 | 4:22.15 | 5:31.30 | 19665 | 44519 3 | 9:53.45 | 4:04.35 | 44520 | 62854 4 | 13:58.05 | 3:40.65 | 62855 | 79419 5 | 17:38.70 | 4:42.30 | 79420 | 100599 6 | 22:21.25 | 3:55.30 | 100600 | 118254 7 | 26:16.55 | 3:32.20 | 118255 | 134174 8 | 29:49.00 | 4:50.05 | 134175 | 155929 9 | 34:39.05 | 4:23.10 | 155930 | 175664 10 | 39:02.15 | 5:28.15 | 175665 | 200279 11 | 44:30.30 | 4:36.05 | 200280 | 220984 12 | 49:06.35 | 1:33.20 | 220985 | 227979 13 | 50:39.55 | 6:22.20 | 227980 | 256649

Характеристики диапазона извлечения и сообщения об ошибках

Выбранный диапазон

Имя файла D:\Hardline - Double Eclipse (Japan 1st Press)\Hardline - Double Eclipse (Japan 1st Press).wav

Пиковый уровень 97.3 % Скорость извлечения 3.9 X Качество диапазона 100.0 % CRC теста 95D6AB4F CRC копии 95D6AB4F Копирование... OK

Ошибок не произошло

Конец отчёта
Johnny Gioeli - lead vocal, acoustic guitar, rhythm guitar, percussion
Neal Schon - lead guitar, rhythm guitar, cat gut guitar, vocals
Joey Gioeli- rhythm guitar, vocals
Todd Jensen - bass, vocals
Deen Castronovo - drums, vocals


Трекер:  [ 08-Янв-2013 07:33 ]

  

Скачать .torrent

Размер .torrent файла 13 KB


Размер: 604 MB
Хэш (hash) релиза: 9c32d6ba9c92a6fe1bad10b7acda253e95517d1c

Торренты, похожие на Hardline - Double Eclipse скачать торрент

Форум Название Автор Размер S L Добавлен
Rосk | Mеtаl | Аltеrnаtivе, Рunk, Indереndеnt (losslеss) ·· (Melodic Hard Rock) Hardline - Double Eclipse (UICY-94514, Japan SHM-CD) - 2010, FLAC (image+.cue), lossless Galfimbul 551597927526 MB 0 0 1297875754

20:02

16-Фев-11

Еще никто не оставлял запись к записи скачать торрент Hardline - Double Eclipse . Будь первым!

!Обратная связь