Скачать через торрент музыку John Lennon - Коллекция: 6 Неремастированных Альбомов бесплатно без регистрации torrent

Если у вас наблюдаются проблемы со скриншотами, переходом по ссылками, скачиванием торрентов - проблемы в блокировщике рекламы AdBlock. #хорошегоДня!


Статистика раздачи
Размер:  3.29 GB   |    Зарегистрирован:  4 года 7 месяцев   |    .torrent скачан:  28 раз   |   
Раздают:  1  
   
Загрузка...
 
Автор Сообщение

L


John Lennon - 6 Альбомов

Жанр: Rock | Аудио кодек: FLAC | Тип рипа: image+.cue | Битрейт аудио: lossless | Источник: dafnaplus | Наличие сканов: да
Продолжительность: 39:46
Трэклист:
01. Mother 5:37
02. Hold On 1:53
03. I Found Out 3:38
04. Working Class Hero 3:51
05. Isolation 2:53
06. Remember 4:36
07. Love 3:24
08. Well Well Well 6:00
09. Look at Me 2:54
10. God 4:11
11. My Mummy's Dead 0:50
Exact Audio Copy V1.0 beta 3 from 29. August 2011

EAC extraction logfile from 6. January 2013, 10:30

John Lennon / John Lennon / Plastic Ono Band (CDP 7 46770 2)

Used drive : PLEXTOR DVDR PX-891SA Adapter: 1 ID: 0

Read mode : Secure
Utilize accurate stream : Yes
Defeat audio cache : Yes
Make use of C2 pointers : No

Read offset correction : 6
Overread into Lead-In and Lead-Out : No
Fill up missing offset samples with silence : Yes
Delete leading and trailing silent blocks : No
Null samples used in CRC calculations : Yes
Used interface : Native Win32 interface for Win NT & 2000

Used output format : User Defined Encoder
Selected bitrate : 1024 kBit/s
Quality : High
Add ID3 tag : No
Command line compressor : C:\Program Files\Exact Audio Copy\Flac\flac.exe
Additional command line options : -V -8 -T "Genre=%genre%" -T "Artist=%artist%" -T "Title=%title%" -T "Album=%albumtitle%" -T "Date=%year%" -T "Tracknumber=%tracknr%" -T "Comment=%comment%" %source%

TOC of the extracted CD

Track | Start | Length | Start sector | End sector
---------------------------------------------------------
1 | 0:00.32 | 5:36.38 | 32 | 25269
2 | 5:36.70 | 1:53.15 | 25270 | 33759
3 | 7:30.10 | 3:37.67 | 33760 | 50101
4 | 11:08.02 | 3:50.68 | 50102 | 67419
5 | 14:58.70 | 2:53.05 | 67420 | 80399
6 | 17:52.00 | 4:36.17 | 80400 | 101116
7 | 22:28.17 | 3:24.20 | 101117 | 116436
8 | 25:52.37 | 5:59.40 | 116437 | 143401
9 | 31:52.02 | 2:54.00 | 143402 | 156451
10 | 34:46.02 | 4:10.45 | 156452 | 175246
11 | 38:56.47 | 0:49.55 | 175247 | 178976

Range status and errors

Selected range

Filename H:\dafnaplus\John Lennon - Plastic Ono Band\John Lennon - John Lennon , Plastic Ono Band (CDP 7 46770 2).wav

Peak level 95.6 %
Extraction speed 7.3 X
Range quality 100.0 %
Test CRC 2C8E51DC
Copy CRC 2C8E51DC
Copy OK

No errors occurred

AccurateRip summary

Track 1 accurately ripped (confidence 3) [929672EF] (AR v2)
Track 2 accurately ripped (confidence 4) [8256A086] (AR v2)
Track 3 accurately ripped (confidence 4) [723FDCFA] (AR v2)
Track 4 accurately ripped (confidence 4) [48F04E20] (AR v2)
Track 5 accurately ripped (confidence 4) [3B7BB2DF] (AR v2)
Track 6 accurately ripped (confidence 4) [9BE7E1A0] (AR v2)
Track 7 accurately ripped (confidence 4) [65DD8619] (AR v2)
Track 8 accurately ripped (confidence 5) [2C3C4DDC] (AR v2)
Track 9 accurately ripped (confidence 5) [FDDABFD3] (AR v2)
Track 10 accurately ripped (confidence 5) [CFE7A41D] (AR v2)
Track 11 accurately ripped (confidence 4) [2801C60C] (AR v2)

All tracks accurately ripped

End of status report

==== Log checksum 9D8C6985C6F96B64DB068E5F0CFD4C3C02AAAC36BB16CC2B9E49D681FC062EB2 ====
Продолжительность: 39:24
Трэклист:
01. Imagine 3:04
02. Crippled Inside 3:49
03. Jealous Guy 4:15
04. It's So Hard 2:28
05. I Don't Want To Be A Soldier 6:08
06. Give Me Some Truth 3:17
07. Oh My Love 2:46
08. How Do You Sleep? 5:36
09. How? 3:44
10. Oh Yoko! 4:17
Exact Audio Copy V1.0 beta 3 from 29. August 2011

EAC extraction logfile from 6. January 2013, 10:52

John Lennon / Imagine (CDP 7 46641 2)

Used drive : PLEXTOR DVDR PX-891SA Adapter: 1 ID: 0

Read mode : Secure
Utilize accurate stream : Yes
Defeat audio cache : Yes
Make use of C2 pointers : No

Read offset correction : 6
Overread into Lead-In and Lead-Out : No
Fill up missing offset samples with silence : Yes
Delete leading and trailing silent blocks : No
Null samples used in CRC calculations : Yes
Used interface : Native Win32 interface for Win NT & 2000

Used output format : User Defined Encoder
Selected bitrate : 1024 kBit/s
Quality : High
Add ID3 tag : No
Command line compressor : C:\Program Files\Exact Audio Copy\Flac\flac.exe
Additional command line options : -V -8 -T "Genre=%genre%" -T "Artist=%artist%" -T "Title=%title%" -T "Album=%albumtitle%" -T "Date=%year%" -T "Tracknumber=%tracknr%" -T "Comment=%comment%" %source%

TOC of the extracted CD

Track | Start | Length | Start sector | End sector
---------------------------------------------------------
1 | 0:00.33 | 3:04.37 | 33 | 13869
2 | 3:04.70 | 3:49.30 | 13870 | 31074
3 | 6:54.25 | 4:15.05 | 31075 | 50204
4 | 11:09.30 | 2:27.60 | 50205 | 61289
5 | 13:37.15 | 6:08.20 | 61290 | 88909
6 | 19:45.35 | 3:16.45 | 88910 | 103654
7 | 23:02.05 | 2:45.40 | 103655 | 116069
8 | 25:47.45 | 5:35.70 | 116070 | 141264
9 | 31:23.40 | 3:44.23 | 141265 | 158087
10 | 35:07.63 | 4:17.02 | 158088 | 177364

Range status and errors

Selected range

Filename H:\dafnaplus\John Lennon - Imagine\John Lennon - Imagine (CDP 7 46641 2).wav

Peak level 99.1 %
Extraction speed 7.3 X
Range quality 100.0 %
Test CRC F030D836
Copy CRC F030D836
Copy OK

No errors occurred

AccurateRip summary

Track 1 accurately ripped (confidence 5) [937D9FA8] (AR v2)
Track 2 accurately ripped (confidence 3) [875A2AE9] (AR v2)
Track 3 accurately ripped (confidence 4) [D6C4F31A] (AR v2)
Track 4 accurately ripped (confidence 4) [7B24A8E4] (AR v2)
Track 5 accurately ripped (confidence 4) [AB1F640E] (AR v2)
Track 6 accurately ripped (confidence 4) [A3001868] (AR v2)
Track 7 accurately ripped (confidence 4) [70ED109C] (AR v2)
Track 8 accurately ripped (confidence 3) [3752A792] (AR v2)
Track 9 accurately ripped (confidence 4) [5987D92B] (AR v2)
Track 10 accurately ripped (confidence 4) [5C0D911B] (AR v2)

All tracks accurately ripped

End of status report

==== Log checksum 173C9EE59DBB2096A9D55385726D8FEAC9139C8F751314F07905C4618647A2A0 ====
Продолжительность: 40:43
Трэклист:
01. Mind Games 4:14
02. Tight As 3:37
03. Aisumasen (I'mSsorry) 4:44
04. One Day (At a Time) 3:09
05. Bring on the Lucie (Freda Peeple) 4:14
06. Nutopian International Anthem 0:04
07. Intuition 3:09
08. Out the Blue 3:22
09. Only People 3:22
10. I Know (I Know) 3:50
11. You are Here 4:09
12. Meat City 2:49
Exact Audio Copy V1.0 beta 3 from 29. August 2011

EAC extraction logfile from 6. January 2013, 11:22

John Lennon / Mind Games (CDP 7 46769 2)

Used drive : PLEXTOR DVDR PX-891SA Adapter: 1 ID: 0

Read mode : Secure
Utilize accurate stream : Yes
Defeat audio cache : Yes
Make use of C2 pointers : No

Read offset correction : 6
Overread into Lead-In and Lead-Out : No
Fill up missing offset samples with silence : Yes
Delete leading and trailing silent blocks : No
Null samples used in CRC calculations : Yes
Used interface : Native Win32 interface for Win NT & 2000

Used output format : User Defined Encoder
Selected bitrate : 1024 kBit/s
Quality : High
Add ID3 tag : No
Command line compressor : C:\Program Files\Exact Audio Copy\Flac\flac.exe
Additional command line options : -V -8 -T "Genre=%genre%" -T "Artist=%artist%" -T "Title=%title%" -T "Album=%albumtitle%" -T "Date=%year%" -T "Tracknumber=%tracknr%" -T "Comment=%comment%" %source%

TOC of the extracted CD

Track | Start | Length | Start sector | End sector
---------------------------------------------------------
1 | 0:00.33 | 4:13.60 | 33 | 19067
2 | 4:14.18 | 3:36.70 | 19068 | 35337
3 | 7:51.13 | 4:44.15 | 35338 | 56652
4 | 12:35.28 | 3:09.07 | 56653 | 70834
5 | 15:44.35 | 4:13.70 | 70835 | 89879
6 | 19:58.30 | 0:04.03 | 89880 | 90182
7 | 20:02.33 | 3:09.12 | 90183 | 104369
8 | 23:11.45 | 3:22.23 | 104370 | 119542
9 | 26:33.68 | 3:22.02 | 119543 | 134694
10 | 29:55.70 | 3:50.30 | 134695 | 151974
11 | 33:46.25 | 4:08.55 | 151975 | 170629
12 | 37:55.05 | 2:48.40 | 170630 | 183269

Range status and errors

Selected range

Filename H:\dafnaplus\John Lennon - Mind Games\John Lennon - Mind Games (CDP 7 46769 2).wav

Peak level 99.9 %
Extraction speed 7.4 X
Range quality 100.0 %
Test CRC 8CB67B3E
Copy CRC 8CB67B3E
Copy OK

No errors occurred

AccurateRip summary

Track 1 accurately ripped (confidence 27) [60031A29] (AR v1)
Track 2 accurately ripped (confidence 27) [119D8CAB] (AR v1)
Track 3 accurately ripped (confidence 27) [5C2CCEBF] (AR v1)
Track 4 accurately ripped (confidence 27) [64C6B11D] (AR v1)
Track 5 accurately ripped (confidence 27) [657AB438] (AR v1)
Track 6 not present in database
Track 7 accurately ripped (confidence 27) [9FED8E6B] (AR v1)
Track 8 accurately ripped (confidence 27) [A53F2B07] (AR v1)
Track 9 accurately ripped (confidence 27) [EF1E3931] (AR v1)
Track 10 accurately ripped (confidence 27) [66EFEE2A] (AR v1)
Track 11 accurately ripped (confidence 27) [3E2B7F1F] (AR v1)
Track 12 accurately ripped (confidence 27) [566D8EE1] (AR v1)

11 track(s) accurately ripped
1 track(s) not present in the AccurateRip database

Some tracks could not be verified as accurate

End of status report

==== Log checksum E6F745B5E2A12D109C2C74E8FF3B33E8F2F2EAADFB76899C442DCE39A4AB7501 ====
Продолжительность: 46:03
Трэклист:
01. Going Down On Love 3:56
02. Whatever Gets You Through The Night 3:28
03. Old Dirt Road 4:12
04. What You Got 3:11
05. Bless You 4:38
06. Scared 4:37
07. #9 Dream 4:47
08. Surprise, Surprise (Sweet Bird Of Paradox) 2:55
09. Steel And Glass 4:38
10. Beef Jerky 3:27
11. Nobody Loves You (When You're Down And Out) 5:10
12. Ya Ya 1:06
Exact Audio Copy V1.0 beta 3 from 29. August 2011

EAC extraction logfile from 6. January 2013, 11:45

John Lennon / Walls And Bridges (CDP 7 46768 2)

Used drive : PLEXTOR DVDR PX-891SA Adapter: 1 ID: 0

Read mode : Secure
Utilize accurate stream : Yes
Defeat audio cache : Yes
Make use of C2 pointers : No

Read offset correction : 6
Overread into Lead-In and Lead-Out : No
Fill up missing offset samples with silence : Yes
Delete leading and trailing silent blocks : No
Null samples used in CRC calculations : Yes
Used interface : Native Win32 interface for Win NT & 2000

Used output format : User Defined Encoder
Selected bitrate : 1024 kBit/s
Quality : High
Add ID3 tag : No
Command line compressor : C:\Program Files\Exact Audio Copy\Flac\flac.exe
Additional command line options : -V -8 -T "Genre=%genre%" -T "Artist=%artist%" -T "Title=%title%" -T "Album=%albumtitle%" -T "Date=%year%" -T "Tracknumber=%tracknr%" -T "Comment=%comment%" %source%

TOC of the extracted CD

Track | Start | Length | Start sector | End sector
---------------------------------------------------------
1 | 0:00.32 | 3:55.60 | 32 | 17716
2 | 3:56.17 | 3:27.38 | 17717 | 33279
3 | 7:23.55 | 4:11.45 | 33280 | 52149
4 | 11:35.25 | 3:10.52 | 52150 | 66451
5 | 14:46.02 | 4:37.43 | 66452 | 87269
6 | 19:23.45 | 4:37.20 | 87270 | 108064
7 | 24:00.65 | 4:47.20 | 108065 | 129609
8 | 28:48.10 | 2:55.15 | 129610 | 142749
9 | 31:43.25 | 4:37.47 | 142750 | 163571
10 | 36:20.72 | 3:26.53 | 163572 | 179074
11 | 39:47.50 | 5:09.50 | 179075 | 202299
12 | 44:57.25 | 1:05.70 | 202300 | 207244

Range status and errors

Selected range

Filename H:\dafnaplus\John Lennon - Walls And Bridges\John Lennon - Walls And Bridges (CDP 7 46768 2).wav

Peak level 100.0 %
Extraction speed 7.6 X
Range quality 100.0 %
Test CRC 011C4536
Copy CRC 011C4536
Copy OK

No errors occurred

AccurateRip summary

Track 1 accurately ripped (confidence 21) [3CEFDDF1] (AR v1)
Track 2 accurately ripped (confidence 21) [13AFE3D7] (AR v1)
Track 3 accurately ripped (confidence 21) [BB82A185] (AR v1)
Track 4 accurately ripped (confidence 21) [9BCB3447] (AR v1)
Track 5 accurately ripped (confidence 21) [200729EB] (AR v1)
Track 6 accurately ripped (confidence 21) [56A20E87] (AR v1)
Track 7 accurately ripped (confidence 20) [B477483E] (AR v1)
Track 8 accurately ripped (confidence 20) [D4661F4C] (AR v1)
Track 9 accurately ripped (confidence 19) [D0DE34CD] (AR v1)
Track 10 accurately ripped (confidence 19) [AA5C71E0] (AR v1)
Track 11 accurately ripped (confidence 19) [796DD1E8] (AR v1)
Track 12 accurately ripped (confidence 20) [7F954E28] (AR v1)

All tracks accurately ripped

End of status report

==== Log checksum 72A4A6E1B7F8AD13427B075F87261B3104E079A27387805AEFC11193ABE2B965 ====
Продолжительность: 45:07
Трэклист:
01. (Just Like) Starting Over 3:57
02. Kiss Kiss Kiss 2:42
03. Clean Up Time 2:58
04. Give Me Something 1:35
05. I'm Losing You 3:58
06. I'm Moving On 2:22
07. Beautiful Boy (Darling Boy) 4:04
08. Watching the Wheels 4:00
09. Yes, I'm Your Angel 3:09
10. Woman 3:33
11. Beautiful Boys 2:55
12. Dear Yoko 2:35
13. Every Man Has a Woman Who Loves Him 4:03
14. Hard Times Are Over 3:18
Exact Audio Copy V1.0 beta 3 from 29. August 2011

EAC extraction logfile from 6. January 2013, 10:05

John Lennon & Yoko Ono / Double Fantasy (CDP 7 91425 2)

Used drive : PLEXTOR DVDR PX-891SA Adapter: 1 ID: 0

Read mode : Secure
Utilize accurate stream : Yes
Defeat audio cache : Yes
Make use of C2 pointers : No

Read offset correction : 6
Overread into Lead-In and Lead-Out : No
Fill up missing offset samples with silence : Yes
Delete leading and trailing silent blocks : No
Null samples used in CRC calculations : Yes
Used interface : Native Win32 interface for Win NT & 2000

Used output format : User Defined Encoder
Selected bitrate : 1024 kBit/s
Quality : High
Add ID3 tag : No
Command line compressor : C:\Program Files\Exact Audio Copy\Flac\flac.exe
Additional command line options : -V -8 -T "Genre=%genre%" -T "Artist=%artist%" -T "Title=%title%" -T "Album=%albumtitle%" -T "Date=%year%" -T "Tracknumber=%tracknr%" -T "Comment=%comment%" %source%

TOC of the extracted CD

Track | Start | Length | Start sector | End sector
---------------------------------------------------------
1 | 0:00.33 | 3:57.02 | 33 | 17809
2 | 3:57.35 | 2:41.68 | 17810 | 29952
3 | 6:39.28 | 2:58.15 | 29953 | 43317
4 | 9:37.43 | 1:34.62 | 43318 | 50429
5 | 11:12.30 | 3:57.55 | 50430 | 68259
6 | 15:10.10 | 2:21.43 | 68260 | 78877
7 | 17:31.53 | 4:04.27 | 78878 | 97204
8 | 21:36.05 | 3:59.55 | 97205 | 115184
9 | 25:35.60 | 3:09.20 | 115185 | 129379
10 | 28:45.05 | 3:32.55 | 129380 | 145334
11 | 32:17.60 | 2:55.15 | 145335 | 158474
12 | 35:13.00 | 2:34.38 | 158475 | 170062
13 | 37:47.38 | 4:02.52 | 170063 | 188264
14 | 41:50.15 | 3:17.38 | 188265 | 203077

Range status and errors

Selected range

Filename H:\dafnaplus\John Lennon & Yoko Ono - Double Fantasy\John Lennon & Yoko Ono - Double Fantasy (CDP 7 91425 2).wav

Peak level 98.4 %
Extraction speed 7.6 X
Range quality 100.0 %
Test CRC F5F9FA28
Copy CRC F5F9FA28
Copy OK

No errors occurred

AccurateRip summary

Track 1 accurately ripped (confidence 4) [762252AE] (AR v1)
Track 2 accurately ripped (confidence 4) [EE4E1307] (AR v1)
Track 3 accurately ripped (confidence 4) [9A5B048C] (AR v1)
Track 4 accurately ripped (confidence 4) [971D4D0F] (AR v1)
Track 5 accurately ripped (confidence 4) [0CF3D37B] (AR v1)
Track 6 accurately ripped (confidence 4) [1244638F] (AR v1)
Track 7 accurately ripped (confidence 4) [22448281] (AR v1)
Track 8 accurately ripped (confidence 4) [FD319322] (AR v1)
Track 9 accurately ripped (confidence 4) [F7878BAC] (AR v1)
Track 10 accurately ripped (confidence 4) [0C2AF471] (AR v1)
Track 11 accurately ripped (confidence 4) [44043D21] (AR v1)
Track 12 accurately ripped (confidence 4) [EBFC7587] (AR v1)
Track 13 accurately ripped (confidence 4) [786A0B02] (AR v1)
Track 14 accurately ripped (confidence 4) [FB2D828A] (AR v1)

All tracks accurately ripped

End of status report

==== Log checksum E3EAB676A8E5AEBBE28475FF36DAA6044C07B61108BC654903E49C2E8CF70DF5 ====
Продолжительность: 61:29
Трэклист:
01. Give Peace A Chance 4:54
02. Instant Karma! 3:23
03. Power To The People 3:19
04. Whatever Gets You Thru The Night 3:20
05. #9 Dream 4:49
06. Mind Games 4:15
07. Love 3:25
08. Happy Xmas (War Is Over) 3:36
09. Imagine 3:05
10. Jealous Guy 4:18
11. Stand By Me 3:28
12. (Just Like) Starting Over 3:58
13. Woman 3:28
14. I'm Losing You 4:00
15. Beautiful Boy (Darling Boy) 4:04
16. Watching The Wheels 3:34
17. Dear Yoko 2:36
18. Move Over Ms. L 2:59
19. Cold Turkey 5:01
Exact Audio Copy V1.0 beta 3 from 29. August 2011

EAC extraction logfile from 6. January 2013, 13:59

John Lennon / The John Lennon Collection (CDP 7 91516 2)

Used drive : PLEXTOR DVDR PX-891SA Adapter: 1 ID: 0

Read mode : Secure
Utilize accurate stream : Yes
Defeat audio cache : Yes
Make use of C2 pointers : No

Read offset correction : 6
Overread into Lead-In and Lead-Out : No
Fill up missing offset samples with silence : Yes
Delete leading and trailing silent blocks : No
Null samples used in CRC calculations : Yes
Used interface : Native Win32 interface for Win NT & 2000

Used output format : User Defined Encoder
Selected bitrate : 1024 kBit/s
Quality : High
Add ID3 tag : No
Command line compressor : C:\Program Files\Exact Audio Copy\Flac\flac.exe
Additional command line options : -V -8 -T "Genre=%genre%" -T "Artist=%artist%" -T "Title=%title%" -T "Album=%albumtitle%" -T "Date=%year%" -T "Tracknumber=%tracknr%" -T "Comment=%comment%" %source%

TOC of the extracted CD

Track | Start | Length | Start sector | End sector
---------------------------------------------------------
1 | 0:00.32 | 4:54.03 | 32 | 22084
2 | 4:54.35 | 3:22.52 | 22085 | 37286
3 | 8:17.12 | 3:18.63 | 37287 | 52199
4 | 11:36.00 | 3:20.27 | 52200 | 67226
5 | 14:56.27 | 4:48.65 | 67227 | 88891
6 | 19:45.17 | 4:14.45 | 88892 | 107986
7 | 23:59.62 | 3:24.40 | 107987 | 123326
8 | 27:24.27 | 3:35.63 | 123327 | 139514
9 | 31:00.15 | 3:05.12 | 139515 | 153401
10 | 34:05.27 | 4:17.55 | 153402 | 172731
11 | 38:23.07 | 3:27.45 | 172732 | 188301
12 | 41:50.52 | 3:57.50 | 188302 | 206126
13 | 45:48.27 | 3:28.08 | 206127 | 221734
14 | 49:16.35 | 4:00.17 | 221735 | 239751
15 | 53:16.52 | 4:03.45 | 239752 | 258021
16 | 57:20.22 | 3:33.65 | 258022 | 274061
17 | 60:54.12 | 2:35.68 | 274062 | 285754
18 | 63:30.05 | 2:58.50 | 285755 | 299154
19 | 66:28.55 | 5:01.05 | 299155 | 321734

Range status and errors

Selected range

Filename H:\dafnaplus\Jonn Lennon\1982 John Lennon - The John Lennon Collection\John Lennon - The John Lennon Collection (CDP 7 91516 2).wav

Peak level 100.0 %
Extraction speed 9.4 X
Range quality 99.9 %
Test CRC 6C813EEA
Copy CRC 6C813EEA
Copy OK

No errors occurred

AccurateRip summary

Track 1 accurately ripped (confidence 17) [76F7AFA7] (AR v1)
Track 2 accurately ripped (confidence 17) [DCC2C59C] (AR v1)
Track 3 accurately ripped (confidence 17) [3FEE46B5] (AR v1)
Track 4 accurately ripped (confidence 17) [6EF2BE61] (AR v1)
Track 5 accurately ripped (confidence 17) [AFA11178] (AR v1)
Track 6 accurately ripped (confidence 17) [53F2B53E] (AR v1)
Track 7 accurately ripped (confidence 17) [0011B7FA] (AR v1)
Track 8 accurately ripped (confidence 17) [4B83FD06] (AR v1)
Track 9 accurately ripped (confidence 17) [79E9E12C] (AR v1)
Track 10 accurately ripped (confidence 17) [E5F877A3] (AR v1)
Track 11 accurately ripped (confidence 17) [554EFB15] (AR v1)
Track 12 accurately ripped (confidence 17) [509B6827] (AR v1)
Track 13 accurately ripped (confidence 17) [F30DA9E8] (AR v1)
Track 14 accurately ripped (confidence 17) [7E1AA7BD] (AR v1)
Track 15 cannot be verified as accurate (confidence 44) [C67649C7], AccurateRip returned [FF8051FA] (AR v2)
Track 16 accurately ripped (confidence 17) [2E5278AF] (AR v1)
Track 17 accurately ripped (confidence 17) [FB65DDD5] (AR v1)
Track 18 accurately ripped (confidence 17) [14EACD38] (AR v1)
Track 19 accurately ripped (confidence 16) [CEE49A9B] (AR v1)

18 track(s) accurately ripped
1 track(s) could not be verified as accurate

Some tracks could not be verified as accurate

End of status report

==== Log checksum 80E32A50EA502D2C16E888E6BD9F4BA40BEBCF4C900BFA57AEB04A2931E25B4D ====


Трекер:  [ 07-Янв-2013 09:45 ]

  

Скачать .torrent

Размер .torrent файла 23 KB


Размер: 3.29 GB
Хэш (hash) релиза: 6b64047a4c87a5ff4e500c142bd03c188065ce21

Еще никто не оставлял запись к записи скачать торрент John Lennon - Коллекция: 6 Неремастированных Альбомов . Будь первым!

!Обратная связь