Скачать через торрент музыку U2 - 2012 - From The Ground Up - Edges Picks From U2360°, FLAC бесплатно без регистрации torrent

Если у вас наблюдаются проблемы со скриншотами, переходом по ссылками, скачиванием торрентов - проблемы в блокировщике рекламы AdBlock. #хорошегоДня!


Статистика раздачи
Размер:  518 MB   |    Зарегистрирован:  4 года 10 месяцев   |    .torrent скачан:  31 раз   |   
Раздают:  1  
   
Загрузка...
 
Автор Сообщение

L


U2 / 2012 / From The Ground Up - Edge's Picks From U2360°

Жанр: Rock/Pop-Rock
Страна-производитель диска: USA
Год издания: 2012
Издатель (лейбл): U2 Dot Com
Номер по каталогу: U2.COM8
Страна: Ireland
Аудиокодек: FLAC (*.flac)
Тип рипа: tracks+.cue
Битрейт аудио: lossless
Продолжительность: 01:07:37
Источник (релизер): Choruk
Наличие сканов в содержимом раздачи: нет
Треклист:
1. Breathe
2. Will Follow
3. Get On Your Boots
4. New Year's Day
5. Electrical Storm
6. Stuck In A Moment You Can't Get Out Of
7. Your Blue Room
8. Vertigo
9. I'll Go Crazy If I Don't Go Crazy Tonight
10. Sunday Bloody Sunday
11. Scarlet
12. In A Little While
13. Miss Sarajevo
14. Hold Me, Thrill Me, Kiss Me, Kill Me
15. "40"
X Lossless Decoder version 20121027 (142.1)

XLD extraction logfile from 2013-01-04 18:40:47 +1100

U2 / FROM THE GROUND UP: Edge's Picks From U2360°

Used drive : HL-DT-ST DVDRW GA11N (revision JA18)

Ripper mode : XLD Secure RipperDisable audio cache : OK for the drive with a cache less than 1375KiBMake use of C2 pointers : NORead offset correction : 667Max retry count : 100Gap status : Analyzed, Appended (except HTOA)

TOC of the extracted CD Track | Start | Length | Start sector | End sector --------------------------------------------------------- 1 | 00:00:00 | 05:33:46 | 0 | 25020 2 | 05:33:46 | 03:54:70 | 25021 | 42640 3 | 09:28:41 | 04:07:24 | 42641 | 61189 4 | 13:35:65 | 04:48:37 | 61190 | 82826 5 | 18:24:27 | 04:48:26 | 82827 | 104452 6 | 23:12:53 | 04:48:27 | 104453 | 126079 7 | 28:01:05 | 04:18:46 | 126080 | 145475 8 | 32:19:51 | 04:08:30 | 145476 | 164105 9 | 36:28:06 | 06:29:38 | 164106 | 193318 10 | 42:57:44 | 04:11:29 | 193319 | 212172 11 | 47:08:73 | 02:29:51 | 212173 | 223398 12 | 49:38:49 | 03:34:69 | 223399 | 239517 13 | 53:13:43 | 04:10:73 | 239518 | 258340 14 | 57:24:41 | 05:18:09 | 258341 | 282199 15 | 62:42:50 | 04:53:74 | 282200 | 304248

AccurateRip Summary Disc not found in AccurateRip DB.

All Tracks Album gain : -11.50 dB Peak : 1.000000 Statistics Read error : 0 Jitter error (maybe fixed) : 0 Retry sector count : 0 Damaged sector count : 0

Track 01 Filename : /Volumes/iTunes/From The Ground Up - Edge's Picks From U2360° (FLAC)/U2 - FROM THE GROUND UP: Edge's Picks From U2360° (2012) [FLAC]/01 Breathe.flac Pre-gap length : 00:02:00

Track gain : -11.88 dB Peak : 1.000000 CRC32 hash (test run) : A4510286 CRC32 hash : A4510286 CRC32 hash (skip zero) : 772C3883 AccurateRip v1 signature : 1F91D1DA AccurateRip v2 signature : 8AE03484 ->Track not present in AccurateRip database. Statistics Read error : 0 Jitter error (maybe fixed) : 0 Retry sector count : 0 Damaged sector count : 0

Track 02 Filename : /Volumes/iTunes/From The Ground Up - Edge's Picks From U2360° (FLAC)/U2 - FROM THE GROUND UP: Edge's Picks From U2360° (2012) [FLAC]/02 I Will Follow.flac

Track gain : -11.38 dB Peak : 1.000000 CRC32 hash (test run) : C91FBF4A CRC32 hash : C91FBF4A CRC32 hash (skip zero) : 3D25AD36 AccurateRip v1 signature : 5F347082 AccurateRip v2 signature : BBB52FCF ->Track not present in AccurateRip database. Statistics Read error : 0 Jitter error (maybe fixed) : 0 Retry sector count : 0 Damaged sector count : 0

Track 03 Filename : /Volumes/iTunes/From The Ground Up - Edge's Picks From U2360° (FLAC)/U2 - FROM THE GROUND UP: Edge's Picks From U2360° (2012) [FLAC]/03 Get On Your Boots.flac

Track gain : -11.94 dB Peak : 1.000000 CRC32 hash (test run) : 016B6D25 CRC32 hash : 016B6D25 CRC32 hash (skip zero) : 503B02CD AccurateRip v1 signature : 37339187 AccurateRip v2 signature : 70D9C348 ->Track not present in AccurateRip database. Statistics Read error : 0 Jitter error (maybe fixed) : 0 Retry sector count : 0 Damaged sector count : 0

Track 04 Filename : /Volumes/iTunes/From The Ground Up - Edge's Picks From U2360° (FLAC)/U2 - FROM THE GROUND UP: Edge's Picks From U2360° (2012) [FLAC]/04 New Year's Day.flac

Track gain : -10.88 dB Peak : 1.000000 CRC32 hash (test run) : 1F6A8926 CRC32 hash : 1F6A8926 CRC32 hash (skip zero) : 124FC509 AccurateRip v1 signature : 825BB3A0 AccurateRip v2 signature : 24F964D1 ->Track not present in AccurateRip database. Statistics Read error : 0 Jitter error (maybe fixed) : 0 Retry sector count : 0 Damaged sector count : 0

Track 05 Filename : /Volumes/iTunes/From The Ground Up - Edge's Picks From U2360° (FLAC)/U2 - FROM THE GROUND UP: Edge's Picks From U2360° (2012) [FLAC]/05 Electrical Storm.flac

Track gain : -9.70 dB Peak : 1.000000 CRC32 hash (test run) : F3916F1D CRC32 hash : F3916F1D CRC32 hash (skip zero) : F5B85C72 AccurateRip v1 signature : 6DB3AF81 AccurateRip v2 signature : 71A2A1C2 ->Track not present in AccurateRip database. Statistics Read error : 0 Jitter error (maybe fixed) : 0 Retry sector count : 0 Damaged sector count : 0

Track 06 Filename : /Volumes/iTunes/From The Ground Up - Edge's Picks From U2360° (FLAC)/U2 - FROM THE GROUND UP: Edge's Picks From U2360° (2012) [FLAC]/06 Stuck In A Moment You Can't Get Out Of.flac

Track gain : -10.46 dB Peak : 1.000000 CRC32 hash (test run) : B33E1148 CRC32 hash : B33E1148 CRC32 hash (skip zero) : 11B4E83D AccurateRip v1 signature : 01D33FAB AccurateRip v2 signature : 19FB53CB ->Track not present in AccurateRip database. Statistics Read error : 0 Jitter error (maybe fixed) : 0 Retry sector count : 0 Damaged sector count : 0

Track 07 Filename : /Volumes/iTunes/From The Ground Up - Edge's Picks From U2360° (FLAC)/U2 - FROM THE GROUND UP: Edge's Picks From U2360° (2012) [FLAC]/07 Your Blue Room.flac

Track gain : -10.19 dB Peak : 1.000000 CRC32 hash (test run) : A38A18A5 CRC32 hash : A38A18A5 CRC32 hash (skip zero) : B1F91A95 AccurateRip v1 signature : 070C4B8B AccurateRip v2 signature : 7CDBFB79 ->Track not present in AccurateRip database. Statistics Read error : 0 Jitter error (maybe fixed) : 0 Retry sector count : 0 Damaged sector count : 0

Track 08 Filename : /Volumes/iTunes/From The Ground Up - Edge's Picks From U2360° (FLAC)/U2 - FROM THE GROUND UP: Edge's Picks From U2360° (2012) [FLAC]/08 Vertigo.flac

Track gain : -12.19 dB Peak : 1.000000 CRC32 hash (test run) : 9C37ADE6 CRC32 hash : 9C37ADE6 CRC32 hash (skip zero) : 6B42FCBE AccurateRip v1 signature : 35B3914D AccurateRip v2 signature : 27BC426C ->Track not present in AccurateRip database. Statistics Read error : 0 Jitter error (maybe fixed) : 0 Retry sector count : 0 Damaged sector count : 0

Track 09 Filename : /Volumes/iTunes/From The Ground Up - Edge's Picks From U2360° (FLAC)/U2 - FROM THE GROUND UP: Edge's Picks From U2360° (2012) [FLAC]/09 I'll Go Crazy If I Don't Go Crazy Tonight.flac

Track gain : -9.96 dB Peak : 1.000000 CRC32 hash (test run) : 30858AB2 CRC32 hash : 30858AB2 CRC32 hash (skip zero) : C7DE6256 AccurateRip v1 signature : 28D39B8B AccurateRip v2 signature : 41F7EDB6 ->Track not present in AccurateRip database. Statistics Read error : 0 Jitter error (maybe fixed) : 0 Retry sector count : 0 Damaged sector count : 0

Track 10 Filename : /Volumes/iTunes/From The Ground Up - Edge's Picks From U2360° (FLAC)/U2 - FROM THE GROUND UP: Edge's Picks From U2360° (2012) [FLAC]/10 Sunday Bloody Sunday.flac

Track gain : -11.31 dB Peak : 1.000000 CRC32 hash (test run) : 345D7627 CRC32 hash : 345D7627 CRC32 hash (skip zero) : 8C6BE2EF AccurateRip v1 signature : 527AC253 AccurateRip v2 signature : 9E3316E8 ->Track not present in AccurateRip database. Statistics Read error : 0 Jitter error (maybe fixed) : 0 Retry sector count : 0 Damaged sector count : 0

Track 11 Filename : /Volumes/iTunes/From The Ground Up - Edge's Picks From U2360° (FLAC)/U2 - FROM THE GROUND UP: Edge's Picks From U2360° (2012) [FLAC]/11 Scarlet.flac

Track gain : -9.00 dB Peak : 1.000000 CRC32 hash (test run) : 30345F3E CRC32 hash : 30345F3E CRC32 hash (skip zero) : B38ECBD2 AccurateRip v1 signature : 40DC6131 AccurateRip v2 signature : E858373F ->Track not present in AccurateRip database. Statistics Read error : 0 Jitter error (maybe fixed) : 0 Retry sector count : 0 Damaged sector count : 0

Track 12 Filename : /Volumes/iTunes/From The Ground Up - Edge's Picks From U2360° (FLAC)/U2 - FROM THE GROUND UP: Edge's Picks From U2360° (2012) [FLAC]/12 In A Little While.flac

Track gain : -10.76 dB Peak : 1.000000 CRC32 hash (test run) : 958FE7B0 CRC32 hash : 958FE7B0 CRC32 hash (skip zero) : 36E4FFB5 AccurateRip v1 signature : DD4B897E AccurateRip v2 signature : B3F741AD ->Track not present in AccurateRip database. Statistics Read error : 0 Jitter error (maybe fixed) : 0 Retry sector count : 0 Damaged sector count : 0

Track 13 Filename : /Volumes/iTunes/From The Ground Up - Edge's Picks From U2360° (FLAC)/U2 - FROM THE GROUND UP: Edge's Picks From U2360° (2012) [FLAC]/13 Miss Sarajevo.flac

Track gain : -10.34 dB Peak : 1.000000 CRC32 hash (test run) : 6584EB3B CRC32 hash : 6584EB3B CRC32 hash (skip zero) : 16AE03A7 AccurateRip v1 signature : 88F1BB7A AccurateRip v2 signature : 10872158 ->Track not present in AccurateRip database. Statistics Read error : 0 Jitter error (maybe fixed) : 0 Retry sector count : 0 Damaged sector count : 0

Track 14 Filename : /Volumes/iTunes/From The Ground Up - Edge's Picks From U2360° (FLAC)/U2 - FROM THE GROUND UP: Edge's Picks From U2360° (2012) [FLAC]/14 Hold Me, Thrill Me, Kiss Me, Kill Me.flac

Track gain : -11.88 dB Peak : 1.000000 CRC32 hash (test run) : 3EC53CE8 CRC32 hash : 3EC53CE8 CRC32 hash (skip zero) : CF9FC065 AccurateRip v1 signature : 4C0518CF AccurateRip v2 signature : 367A9979 ->Track not present in AccurateRip database. Statistics Read error : 0 Jitter error (maybe fixed) : 0 Retry sector count : 0 Damaged sector count : 0

Track 15 Filename : /Volumes/iTunes/From The Ground Up - Edge's Picks From U2360° (FLAC)/U2 - FROM THE GROUND UP: Edge's Picks From U2360° (2012) [FLAC]/15 "40".flac

Track gain : -10.05 dB Peak : 1.000000 CRC32 hash (test run) : B7E1652C CRC32 hash : B7E1652C CRC32 hash (skip zero) : 53C65D6C AccurateRip v1 signature : DF5C8373 AccurateRip v2 signature : 7928082E ->Track not present in AccurateRip database. Statistics Read error : 0 Jitter error (maybe fixed) : 0 Retry sector count : 0 Damaged sector count : 0

No errors occurred

End of status report
REM GENRE RockREM DATE 2012PERFORMER "U2"TITLE "FROM THE GROUND UP: Edge's Picks From U2360°"FILE "01 - Breathe.flac" WAVE TRACK 01 AUDIO TITLE "Breathe" PERFORMER "U2" ISRC GBUM71207568 REM REPLAYGAIN_TRACK_GAIN -11.88 dB REM REPLAYGAIN_TRACK_PEAK 1.000000 INDEX 01 00:00:00FILE "02 - I Will Follow.flac" WAVE TRACK 02 AUDIO TITLE "I Will Follow" PERFORMER "U2" ISRC GBUM71207573 REM REPLAYGAIN_TRACK_GAIN -11.38 dB REM REPLAYGAIN_TRACK_PEAK 1.000000 INDEX 01 00:00:00FILE "03 - Get On Your Boots.flac" WAVE TRACK 03 AUDIO TITLE "Get On Your Boots" PERFORMER "U2" ISRC GBUM71207571 REM REPLAYGAIN_TRACK_GAIN -11.94 dB REM REPLAYGAIN_TRACK_PEAK 1.000000 INDEX 01 00:00:00FILE "04 - New Year's Day.flac" WAVE TRACK 04 AUDIO TITLE "New Year's Day" PERFORMER "U2" ISRC GBUM71207577 REM REPLAYGAIN_TRACK_GAIN -10.88 dB REM REPLAYGAIN_TRACK_PEAK 1.000000 INDEX 01 00:00:00FILE "05 - Electrical Storm.flac" WAVE TRACK 05 AUDIO TITLE "Electrical Storm" PERFORMER "U2" ISRC GBUM71207570 REM REPLAYGAIN_TRACK_GAIN -9.70 dB REM REPLAYGAIN_TRACK_PEAK 1.000000 INDEX 01 00:00:00FILE "06 - Stuck In A Moment You Can't Get Out Of.flac" WAVE TRACK 06 AUDIO TITLE "Stuck In A Moment You Can't Get Out Of" PERFORMER "U2" ISRC GBUM71207579 REM REPLAYGAIN_TRACK_GAIN -10.46 dB REM REPLAYGAIN_TRACK_PEAK 1.000000 INDEX 01 00:00:00FILE "07 - Your Blue Room.flac" WAVE TRACK 07 AUDIO TITLE "Your Blue Room" PERFORMER "U2" ISRC GBUM71207582 REM REPLAYGAIN_TRACK_GAIN -10.19 dB REM REPLAYGAIN_TRACK_PEAK 1.000000 INDEX 01 00:00:00FILE "08 - Vertigo.flac" WAVE TRACK 08 AUDIO TITLE "Vertigo" PERFORMER "U2" ISRC GBUM71207581 REM REPLAYGAIN_TRACK_GAIN -12.19 dB REM REPLAYGAIN_TRACK_PEAK 1.000000 INDEX 01 00:00:00FILE "09 - I'll Go Crazy If I Don't Go Crazy Tonight.flac" WAVE TRACK 09 AUDIO TITLE "I'll Go Crazy If I Don't Go Crazy Tonight" PERFORMER "U2" ISRC GBUM71207574 REM REPLAYGAIN_TRACK_GAIN -9.96 dB REM REPLAYGAIN_TRACK_PEAK 1.000000 INDEX 01 00:00:00FILE "10 - Sunday Bloody Sunday.flac" WAVE TRACK 10 AUDIO TITLE "Sunday Bloody Sunday" PERFORMER "U2" ISRC GBUM71207580 REM REPLAYGAIN_TRACK_GAIN -11.31 dB REM REPLAYGAIN_TRACK_PEAK 1.000000 INDEX 01 00:00:00FILE "11 - Scarlet.flac" WAVE TRACK 11 AUDIO TITLE "Scarlet" PERFORMER "U2" ISRC GBUM71207578 REM REPLAYGAIN_TRACK_GAIN -9.00 dB REM REPLAYGAIN_TRACK_PEAK 1.000000 INDEX 01 00:00:00FILE "12 - In A Little While.flac" WAVE TRACK 12 AUDIO TITLE "In A Little While" PERFORMER "U2" ISRC GBUM71207575 REM REPLAYGAIN_TRACK_GAIN -10.76 dB REM REPLAYGAIN_TRACK_PEAK 1.000000 INDEX 01 00:00:00FILE "13 - Miss Sarajevo.flac" WAVE TRACK 13 AUDIO TITLE "Miss Sarajevo" PERFORMER "U2" ISRC GBUM71207576 REM REPLAYGAIN_TRACK_GAIN -10.34 dB REM REPLAYGAIN_TRACK_PEAK 1.000000 INDEX 01 00:00:00FILE "14 - Hold Me, Thrill Me, Kiss Me, Kill Me.flac" WAVE TRACK 14 AUDIO TITLE "Hold Me, Thrill Me, Kiss Me, Kill Me" PERFORMER "U2" ISRC GBUM71207572 REM REPLAYGAIN_TRACK_GAIN -11.88 dB REM REPLAYGAIN_TRACK_PEAK 1.000000 INDEX 01 00:00:00FILE "15 - 40.flac" WAVE TRACK 15 AUDIO TITLE "'40'" PERFORMER "U2" ISRC GBUM71207569 REM REPLAYGAIN_TRACK_GAIN -10.05 dB REM REPLAYGAIN_TRACK_PEAK 1.000000 INDEX 01 00:00:00
-----------------------

DON'T MODIFY THIS FILE

-----------------------

PERFORMER: auCDtect Task Manager, ver. 1.5.1RC6 build 1.5.1.7Copyright (c) 2008-2010 y-soft. All rights reservedhttp://y-soft.org

ANALYZER: auCDtect: CD records authenticity detector, version 0.8.2Copyright (c) 2004 Oleg Berngardt. All rights reserved.Copyright (c) 2004 Alexander Djourik. All rights reserved.

FILE: 15 - 40.flac Size: 37922638 Hash: C9C9E9EA92D776F9F3741F9B9FD5D3F3 Accuracy: -m0 Conclusion: CDDA 100% Signature: 5F26F58203C41511263EA270969554053213B53BFILE: 14 - Hold Me, Thrill Me, Kiss Me, Kill Me.flac Size: 44348626 Hash: 6B9F35FB50307A1DFF43ED34BE9027E7 Accuracy: -m0 Conclusion: CDDA 100% Signature: 9FFA47D3380CB2A9440179D09A70D5E749465A1AFILE: 13 - Miss Sarajevo.flac Size: 29549763 Hash: F2C68859B2DF1D7A0406683566C9441D Accuracy: -m0 Conclusion: CDDA 87% Signature: 9CED766276CDEE64413A7EF5DED0A8C5D6E03152FILE: 12 - In A Little While.flac Size: 25752384 Hash: 8CBED4ED26DBB75E43A4FE55B11D3386 Accuracy: -m0 Conclusion: CDDA 100% Signature: A1E0641DEB48F2B15B34A3FEE3AF5F4D4D5C8CC7FILE: 10 - Sunday Bloody Sunday.flac Size: 35414107 Hash: ED26549CB9FCA87614389F2AF9BA8D4F Accuracy: -m0 Conclusion: CDDA 100% Signature: B3972475145BBDDCB97D0881A84B28CA2060A4C8FILE: 09 - I'll Go Crazy If I Don't Go Crazy Tonight.flac Size: 55654125 Hash: 3D1FBB7FEEDDAB3D5FFB95190B17A0B3 Accuracy: -m0 Conclusion: CDDA 100% Signature: C1A77FA35B535DDC88B366CD1374045C9AA0521CFILE: 08 - Vertigo.flac Size: 35374047 Hash: 9C5CE73ECFE2D40BF6FF9912310292B9 Accuracy: -m0 Conclusion: CDDA 99% Signature: A9DB855BC590CA2AD198BC5C3DA8095371C081FAFILE: 07 - Your Blue Room.flac Size: 33256161 Hash: EC21E2019A4ABC175B392B4AFA772E71 Accuracy: -m0 Conclusion: CDDA 99% Signature: C9E64BF8D916E70EDC78D072D2698CD751CACE96FILE: 06 - Stuck In A Moment You Can't Get Out Of.flac Size: 36856056 Hash: 412D5BEC608DCD9942A2FA2A5E197EA6 Accuracy: -m0 Conclusion: CDDA 100% Signature: D4CE60E09348B422EA028386FC119D1F27EF35BAFILE: 05 - Electrical Storm.flac Size: 37347509 Hash: 863AED46244F175AC7ED5E61CB78ED54 Accuracy: -m0 Conclusion: CDDA 100% Signature: CA65EF0EADFC9CDAA9DA97BD818AB7157777E797FILE: 04 - New Year's Day.flac Size: 40611151 Hash: 493AB927700D95E5B7C3515F90FDB122 Accuracy: -m0 Conclusion: CDDA 100% Signature: 53812307631D305BDEA71ACBA5519BD3FF865378FILE: 03 - Get On Your Boots.flac Size: 34225955 Hash: 1BFED0FF487D9AD8463705C3EF959672 Accuracy: -m0 Conclusion: CDDA 100% Signature: E648428F4061F38CEA071768646ACE7A011256C4FILE: 02 - I Will Follow.flac Size: 33572231 Hash: 11DFE6B0707BE4ED7922EDA46E858002 Accuracy: -m0 Conclusion: CDDA 100% Signature: 9E119B01A60603E8F38AD109F6F8E2C71C05FB2EFILE: 01 - Breathe.flac Size: 45609846 Hash: 27C0E2051E30148275ADA555D95E10F6 Accuracy: -m0 Conclusion: CDDA 100% Signature: C10A25635270C140B6AD167D4817235A58AE1B27FILE: 11 - Scarlet.flac Size: 17909699 Hash: 913FD4427D2EF19556EE19F87BAF92F9 Accuracy: -m0 Conclusion: ??? Signature: C63D11E7C94DE1883AE9AC80DBBD9348FAB6AA96
Доп. информация: Presented in a bespoke, wrap-around sleeve, the large-format hardback book opens to reveal FOUR exclusive lithographs of the band, some very cool bookmarks and Edge's Picks - a limited-edition, 15-track live CD, curated by The Edge.

Трекер:  [ 07-Янв-2013 09:48 ]

  

Скачать .torrent

Размер .torrent файла 11 KB


Размер: 518 MB
Хэш (hash) релиза: 7c15f6e635ef22484359053ad62ba7ffc25d40dd

Еще никто не оставлял запись к записи скачать торрент U2 - 2012 - From The Ground Up - Edges Picks From U2360°, FLAC . Будь первым!

!Обратная связь