Скачать через торрент музыку Paul McCartney - Paul McCartney Archive Collection - McCartney I&II, Ram, Band on The Run бесплатно без регистрации torrent

Если у вас наблюдаются проблемы со скриншотами, переходом по ссылками, скачиванием торрентов - проблемы в блокировщике рекламы AdBlock. #хорошегоДня!


Статистика раздачи
Размер:  4.85 GB   |    Зарегистрирован:  4 года 10 месяцев   |    .torrent скачан:  61 раз   |   
Раздают:  1  
   
Загрузка...
 
Автор Сообщение

Galfimbul

avatar Galfimbul


Paul McCartney - Paul McCartney Archive Collection:
McCartney (Deluxe Edition, 2CD+DVD), RAM (Deluxe Edition, 4CD+DVD),
Band on the Run (Deluxe Edition, 3CD+DVD), McCartney II (Deluxe Edition, 3CD+DVD)

4 Studio Albums, Deluxe Edition, Remastered, 12CD
Жанр: Classic Rock
Страна-производитель диска: USA
Оригинальные года издания: 1970-1980
Год издания: 2010-2012
Издатель (лейбл): MPL, Hear Music, Concord Music Group
Страна: England
Аудиокодек: FLAC (*.flac)
Тип рипа: image+.cue
Битрейт аудио: lossless
Продолжительность: 12:06:09
Источник (релизер): Собственный
Наличие сканов в содержимом раздачи: да (JPG-PNG, 2.18Gb, 300dpi)
Wikipedia | Official page
О данном материале: В 2010 году начат перевыпуск рематированных студийных альбомов Paul McCartney под общим названием «Paul McCartney Archive Collection». В этой раздаче собраны все четыре студийных альбома выпущенных в рамках данного проекта, в 2010-2012 годах. В состав альбомов, в варианте Deluxe Edition, так же входят бонус DVD.

Studio Albums
Треклист:
01. The Lovely Linda - 0:46
02. That Would Be Something - 2:41
03. Valentine Day - 1:44
04. Every Night - 2:35
05. Hot As Sun + Glasses - 2:09
06. Junk - 1:57
07. Man We Was Lonely - 3:00
08. Oo You - 2:50
09. Momma Miss America - 4:08
10. Teddy Boy - 2:25
11. Singalong Junk - 2:37
12. Maybe I'm Amazed - 3:53
13. Kreen -- Akrore - 4:16
01. Suicide (Out-take) - 2:50
02. Maybe I'm Amazed (from ''One Hand Clapping'') - 4:54
03. Every Night (Live at Glasgow - 1979) - 4:32
04. Hot As Sun (Live at Glasgow - 1979) - 2:28
05. Maybe I'm Amazed (Live at Glasgow - 1979) - 5:13
06. Don't Cry Baby (Out-take) - 3:08
07. Women Kind (Demo - Mono) - 2:108

Exact Audio Copy V1.0 beta 3 from 29. August 2011

EAC extraction logfile from 17. December 2012, 15:13

Paul McCartney / McCartney (2011 Remaster) CD1

Used drive : ATAPI iHAS124 B Adapter: 2 ID: 0

Read mode : SecureUtilize accurate stream : YesDefeat audio cache : YesMake use of C2 pointers : No

Read offset correction : 6Overread into Lead-In and Lead-Out : NoFill up missing offset samples with silence : YesDelete leading and trailing silent blocks : NoNull samples used in CRC calculations : YesUsed interface : Native Win32 interface for Win NT & 2000

Used output format : User Defined EncoderSelected bitrate : 1024 kBit/sQuality : HighAdd ID3 tag : NoCommand line compressor : C:\Program Files (x86)\Exact Audio Copy\FLAC\FLAC.EXEAdditional command line options : -8 -V -T "ARTIST=%artist%" -T "TITLE=%title%" -T "ALBUM=%albumtitle%" -T "DATE=%year%" -T "TRACKNUMBER=%tracknr%" -T "GENRE=%genre%" -T "PERFORMER=%albuminterpret%" -T "COMPOSER=%composer%" %haslyrics%--tag-from-file=LYRICS="%lyricsfile%"%haslyrics% -T "ALBUMARTIST=%albumartist%" -T "DISCNUMBER=%cdnumber%" -T "TOTALDISCS=%totalcds%" -T "TOTALTRACKS=%numtracks%" -T "COMMENT=%comment%" %source% -o %dest%

TOC of the extracted CD

Track | Start | Length | Start sector | End sector --------------------------------------------------------- 1 | 0:00.00 | 0:45.57 | 0 | 3431 2 | 0:45.57 | 2:41.34 | 3432 | 15540 3 | 3:27.16 | 1:43.54 | 15541 | 23319 4 | 5:10.70 | 2:35.19 | 23320 | 34963 5 | 7:46.14 | 2:09.23 | 34964 | 44661 6 | 9:55.37 | 1:56.47 | 44662 | 53408 7 | 11:52.09 | 3:00.02 | 53409 | 66910 8 | 14:52.11 | 2:50.09 | 66911 | 79669 9 | 17:42.20 | 4:07.71 | 79670 | 98265 10 | 21:50.16 | 2:24.65 | 98266 | 109130 11 | 24:15.06 | 2:37.34 | 109131 | 120939 12 | 26:52.40 | 3:52.60 | 120940 | 138399 13 | 30:45.25 | 4:15.65 | 138400 | 157589

Range status and errors

Selected range

Filename G:\CD\Paul McCartney - McCartney CD1.wav

Peak level 97.9 % Extraction speed 2.9 X Range quality 99.9 % Test CRC F100D964 Copy CRC F100D964 Copy OK

No errors occurred

AccurateRip summary

Track 1 accurately ripped (confidence 9) [C258B7CD] (AR v2)Track 2 accurately ripped (confidence 9) [36EBCD29] (AR v2)Track 3 accurately ripped (confidence 9) [B3BC5C3D] (AR v2)Track 4 accurately ripped (confidence 9) [CFD51048] (AR v2)Track 5 accurately ripped (confidence 9) [9B4A3EED] (AR v2)Track 6 accurately ripped (confidence 9) [FFA9D930] (AR v2)Track 7 accurately ripped (confidence 9) [854C11ED] (AR v2)Track 8 accurately ripped (confidence 9) [639A192F] (AR v2)Track 9 accurately ripped (confidence 9) [1F7BA665] (AR v2)Track 10 accurately ripped (confidence 9) [68F4C657] (AR v2)Track 11 accurately ripped (confidence 9) [EEA5C81B] (AR v2)Track 12 accurately ripped (confidence 9) [E8115A2E] (AR v2)Track 13 accurately ripped (confidence 9) [1907AC7F] (AR v2)

All tracks accurately ripped

End of status report

==== Log checksum 10AF348DBA7630577810F017AD32DDA510214AEE88637D123C399292C0E5F3FD ====
Exact Audio Copy V1.0 beta 3 from 29. August 2011

EAC extraction logfile from 17. December 2012, 15:28

Paul McCartney / McCartney (2011 Remaster) CD2

Used drive : ATAPI iHAS124 B Adapter: 2 ID: 0

Read mode : SecureUtilize accurate stream : YesDefeat audio cache : YesMake use of C2 pointers : No

Read offset correction : 6Overread into Lead-In and Lead-Out : NoFill up missing offset samples with silence : YesDelete leading and trailing silent blocks : NoNull samples used in CRC calculations : YesUsed interface : Native Win32 interface for Win NT & 2000

Used output format : User Defined EncoderSelected bitrate : 1024 kBit/sQuality : HighAdd ID3 tag : NoCommand line compressor : C:\Program Files (x86)\Exact Audio Copy\FLAC\FLAC.EXEAdditional command line options : -8 -V -T "ARTIST=%artist%" -T "TITLE=%title%" -T "ALBUM=%albumtitle%" -T "DATE=%year%" -T "TRACKNUMBER=%tracknr%" -T "GENRE=%genre%" -T "PERFORMER=%albuminterpret%" -T "COMPOSER=%composer%" %haslyrics%--tag-from-file=LYRICS="%lyricsfile%"%haslyrics% -T "ALBUMARTIST=%albumartist%" -T "DISCNUMBER=%cdnumber%" -T "TOTALDISCS=%totalcds%" -T "TOTALTRACKS=%numtracks%" -T "COMMENT=%comment%" %source% -o %dest%

TOC of the extracted CD

Track | Start | Length | Start sector | End sector --------------------------------------------------------- 1 | 0:00.00 | 2:50.18 | 0 | 12767 2 | 2:50.18 | 4:54.02 | 12768 | 34819 3 | 7:44.20 | 4:32.24 | 34820 | 55243 4 | 12:16.44 | 2:28.21 | 55244 | 66364 5 | 14:44.65 | 5:12.52 | 66365 | 89816 6 | 19:57.42 | 3:08.23 | 89817 | 103939 7 | 23:05.65 | 2:09.43 | 103940 | 113657

Range status and errors

Selected range

Filename G:\CD\Paul McCartney - McCartney CD2.wav

Peak level 98.5 % Extraction speed 2.8 X Range quality 100.0 % Test CRC EE21B435 Copy CRC EE21B435 Copy OK

No errors occurred

AccurateRip summary

Track 1 accurately ripped (confidence 19) [B60AE8F7] (AR v2)Track 2 accurately ripped (confidence 18) [02454B8D] (AR v2)Track 3 accurately ripped (confidence 19) [EAAC5952] (AR v2)Track 4 accurately ripped (confidence 18) [6D86E399] (AR v2)Track 5 accurately ripped (confidence 19) [142ED736] (AR v2)Track 6 accurately ripped (confidence 19) [8206A062] (AR v2)Track 7 accurately ripped (confidence 19) [8E8EF025] (AR v2)

All tracks accurately ripped

End of status report

==== Log checksum 49002993D6B423D1D6DE42D92DC4DF8545F4D5D7725895AF0684EC077DD94F0C ====
Треклист:
01. Too Many People - 4:11
02. 3 Legs - 2:48
03. Ram On - 2:31
04. Dear Boy - 2:15
05. Uncle Albert/Admiral Halsey - 4:55
06. Smile Away - 3:53
07. Heart Of The Country - 2:24
08. Monkberry Moon Delight - 5:26
09. Eat at Home - 3:23
10. Long Haired Lady - 6:05
11. Ram On - 0:55
12. The Back Seat Of My Car - 4:31
01. Another Day - 3:43
02. Oh Woman, Oh Why - 4:36
03. Little Woman Love - 2:09
04. A Love For You (Jon Kelly Mix) - 4:08
05. Hey Diddle (Dixon Van Winkle Mix) - 3:49
06. Great Cock And Seagull Race (Dixon Van Winkle Mix) - 2:36
07. Rode All Night - 8:45
08. Sunshine Sometime (Earliest Mix) - 3:22
01. Too Many People - 4:17
02. 3 Legs - 2:50
03. Ram On - 2:30
04. Dear Boy - 2:16
05. Uncle Albert / Admiral Halsey - 4:55
06. Smile Away - 3:56
07. Heart Of The Country - 2:23
08. Monkberry Moon Delight - 5:26
09. Eat At Home - 3:24
10. Long Haired Lady - 6:05
11. Ram On - 0:53
12. The Back Seat Of My Car - 4:30
01. Too Many People - 4:33
02. 3 Legs - 3:42
03. Ram On - 2:52
04. Dear Boy - 2:51
05. Uncle Albert/Admiral Halsey - 4:58
06. Smile Away - 4:41
07. Heart Of The Country - 2:27
08. Monkberry Moon Delight - 4:39
09. Eat At Home - 3:31
10. Long Haired Lady - 5:50
11. Back Seat Of My Car - 4:54

Exact Audio Copy V1.0 beta 3 from 29. August 2011

EAC extraction logfile from 17. December 2012, 17:21

Paul & Linda McCartney / RAM (2012 Remaster) CD1

Used drive : ATAPI iHAS124 B Adapter: 2 ID: 0

Read mode : SecureUtilize accurate stream : YesDefeat audio cache : YesMake use of C2 pointers : No

Read offset correction : 6Overread into Lead-In and Lead-Out : NoFill up missing offset samples with silence : YesDelete leading and trailing silent blocks : NoNull samples used in CRC calculations : YesUsed interface : Native Win32 interface for Win NT & 2000

Used output format : User Defined EncoderSelected bitrate : 1024 kBit/sQuality : HighAdd ID3 tag : NoCommand line compressor : C:\Program Files (x86)\Exact Audio Copy\FLAC\FLAC.EXEAdditional command line options : -8 -V -T "ARTIST=%artist%" -T "TITLE=%title%" -T "ALBUM=%albumtitle%" -T "DATE=%year%" -T "TRACKNUMBER=%tracknr%" -T "GENRE=%genre%" -T "PERFORMER=%albuminterpret%" -T "COMPOSER=%composer%" %haslyrics%--tag-from-file=LYRICS="%lyricsfile%"%haslyrics% -T "ALBUMARTIST=%albumartist%" -T "DISCNUMBER=%cdnumber%" -T "TOTALDISCS=%totalcds%" -T "TOTALTRACKS=%numtracks%" -T "COMMENT=%comment%" %source% -o %dest%

TOC of the extracted CD

Track | Start | Length | Start sector | End sector --------------------------------------------------------- 1 | 0:00.00 | 4:10.50 | 0 | 18799 2 | 4:10.50 | 2:47.65 | 18800 | 31389 3 | 6:58.40 | 2:30.51 | 31390 | 42690 4 | 9:29.16 | 2:15.31 | 42691 | 52846 5 | 11:44.47 | 4:55.11 | 52847 | 74982 6 | 16:39.58 | 3:53.19 | 74983 | 92476 7 | 20:33.02 | 2:24.19 | 92477 | 103295 8 | 22:57.21 | 5:25.51 | 103296 | 127721 9 | 28:22.72 | 3:22.74 | 127722 | 142945 10 | 31:45.71 | 6:05.18 | 142946 | 170338 11 | 37:51.14 | 0:55.36 | 170339 | 174499 12 | 38:46.50 | 4:30.70 | 174500 | 194819

Range status and errors

Selected range

Filename G:\CD\Paul & Linda McCartney - RAM CD1.wav

Peak level 100.0 % Extraction speed 3.2 X Range quality 100.0 % Test CRC D863079D Copy CRC D863079D Copy OK

No errors occurred

AccurateRip summary

Track 1 accurately ripped (confidence 3) [77E7EC33] (AR v2)Track 2 accurately ripped (confidence 3) [BCD9C218] (AR v2)Track 3 accurately ripped (confidence 3) [42E193F4] (AR v2)Track 4 accurately ripped (confidence 3) [0F0D0DDD] (AR v2)Track 5 accurately ripped (confidence 3) [127C4EB3] (AR v2)Track 6 accurately ripped (confidence 3) [163CEC36] (AR v2)Track 7 accurately ripped (confidence 3) [92CF48C4] (AR v2)Track 8 accurately ripped (confidence 3) [525AD451] (AR v2)Track 9 accurately ripped (confidence 3) [E4F62149] (AR v2)Track 10 accurately ripped (confidence 3) [9C7E04CC] (AR v2)Track 11 accurately ripped (confidence 3) [50E326BB] (AR v2)Track 12 accurately ripped (confidence 3) [26B6F75E] (AR v2)

All tracks accurately ripped

End of status report

==== Log checksum 7B66551A1864F0FB50AA1F191197BDE3CC1E33898CC861C3B5D8682F214BB9F1 ====
Exact Audio Copy V1.0 beta 3 from 29. August 2011

EAC extraction logfile from 17. December 2012, 17:41

Paul and Linda McCartney / RAM (2012 Remaster) CD2

Used drive : ATAPI iHAS124 B Adapter: 2 ID: 0

Read mode : SecureUtilize accurate stream : YesDefeat audio cache : YesMake use of C2 pointers : No

Read offset correction : 6Overread into Lead-In and Lead-Out : NoFill up missing offset samples with silence : YesDelete leading and trailing silent blocks : NoNull samples used in CRC calculations : YesUsed interface : Native Win32 interface for Win NT & 2000

Used output format : User Defined EncoderSelected bitrate : 1024 kBit/sQuality : HighAdd ID3 tag : NoCommand line compressor : C:\Program Files (x86)\Exact Audio Copy\FLAC\FLAC.EXEAdditional command line options : -8 -V -T "ARTIST=%artist%" -T "TITLE=%title%" -T "ALBUM=%albumtitle%" -T "DATE=%year%" -T "TRACKNUMBER=%tracknr%" -T "GENRE=%genre%" -T "PERFORMER=%albuminterpret%" -T "COMPOSER=%composer%" %haslyrics%--tag-from-file=LYRICS="%lyricsfile%"%haslyrics% -T "ALBUMARTIST=%albumartist%" -T "DISCNUMBER=%cdnumber%" -T "TOTALDISCS=%totalcds%" -T "TOTALTRACKS=%numtracks%" -T "COMMENT=%comment%" %source% -o %dest%

TOC of the extracted CD

Track | Start | Length | Start sector | End sector --------------------------------------------------------- 1 | 0:00.00 | 3:43.27 | 0 | 16751 2 | 3:43.27 | 4:35.48 | 16752 | 37424 3 | 8:19.00 | 2:08.54 | 37425 | 47078 4 | 10:27.54 | 4:08.33 | 47079 | 65711 5 | 14:36.12 | 3:49.35 | 65712 | 82921 6 | 18:25.47 | 2:35.50 | 82922 | 94596 7 | 21:01.22 | 8:45.24 | 94597 | 133995 8 | 29:46.46 | 3:22.13 | 133996 | 149158

Range status and errors

Selected range

Filename G:\CD\Paul and Linda McCartney - RAM (2012 Remaster) CD2.wav

Peak level 99.4 % Extraction speed 3.0 X Range quality 100.0 % Test CRC 62B1769D Copy CRC 62B1769D Copy OK

No errors occurred

AccurateRip summary

Track 1 accurately ripped (confidence 13) [F031086F] (AR v2)Track 2 accurately ripped (confidence 12) [3FADCC4B] (AR v2)Track 3 accurately ripped (confidence 12) [BD8C3365] (AR v2)Track 4 accurately ripped (confidence 12) [E4D18D45] (AR v2)Track 5 accurately ripped (confidence 12) [A3038FB3] (AR v2)Track 6 accurately ripped (confidence 12) [D6D316F3] (AR v2)Track 7 accurately ripped (confidence 12) [81A9AF28] (AR v2)Track 8 accurately ripped (confidence 12) [F9A98BCA] (AR v2)

All tracks accurately ripped

End of status report

==== Log checksum 02D4F560FD7B0DCE559C3DAB48C24FFE7D7336C0E382490F279A23008AE4774D ====
Exact Audio Copy V1.0 beta 3 from 29. August 2011

EAC extraction logfile from 17. December 2012, 18:11

Paul & Linda McCartney / RAM (2012 Remaster) CD3

Used drive : ATAPI iHAS124 B Adapter: 2 ID: 0

Read mode : SecureUtilize accurate stream : YesDefeat audio cache : YesMake use of C2 pointers : No

Read offset correction : 6Overread into Lead-In and Lead-Out : NoFill up missing offset samples with silence : YesDelete leading and trailing silent blocks : NoNull samples used in CRC calculations : YesUsed interface : Native Win32 interface for Win NT & 2000

Used output format : User Defined EncoderSelected bitrate : 1024 kBit/sQuality : HighAdd ID3 tag : NoCommand line compressor : C:\Program Files (x86)\Exact Audio Copy\FLAC\FLAC.EXEAdditional command line options : -8 -V -T "ARTIST=%artist%" -T "TITLE=%title%" -T "ALBUM=%albumtitle%" -T "DATE=%year%" -T "TRACKNUMBER=%tracknr%" -T "GENRE=%genre%" -T "PERFORMER=%albuminterpret%" -T "COMPOSER=%composer%" %haslyrics%--tag-from-file=LYRICS="%lyricsfile%"%haslyrics% -T "ALBUMARTIST=%albumartist%" -T "DISCNUMBER=%cdnumber%" -T "TOTALDISCS=%totalcds%" -T "TOTALTRACKS=%numtracks%" -T "COMMENT=%comment%" %source% -o %dest%

TOC of the extracted CD

Track | Start | Length | Start sector | End sector --------------------------------------------------------- 1 | 0:00.00 | 4:17.31 | 0 | 19305 2 | 4:17.31 | 2:49.40 | 19306 | 32020 3 | 7:06.71 | 2:29.72 | 32021 | 43267 4 | 9:36.68 | 2:15.48 | 43268 | 53440 5 | 11:52.41 | 4:54.62 | 53441 | 75552 6 | 16:47.28 | 3:55.64 | 75553 | 93241 7 | 20:43.17 | 2:23.32 | 93242 | 103998 8 | 23:06.49 | 5:26.25 | 103999 | 128473 9 | 28:32.74 | 3:23.52 | 128474 | 143750 10 | 31:56.51 | 6:04.71 | 143751 | 171121 11 | 38:01.47 | 0:52.47 | 171122 | 175068 12 | 38:54.19 | 4:30.09 | 175069 | 195327

Range status and errors

Selected range

Filename G:\CD\Paul & Linda McCartney - RAM CD3.wav

Peak level 99.4 % Extraction speed 3.2 X Range quality 100.0 % Test CRC 08955A87 Copy CRC 08955A87 Copy OK

No errors occurred

AccurateRip summary

Track 1 accurately ripped (confidence 2) [6A8104B2] (AR v2)Track 2 accurately ripped (confidence 2) [60824945] (AR v2)Track 3 accurately ripped (confidence 2) [347BB705] (AR v2)Track 4 accurately ripped (confidence 2) [5E76B856] (AR v2)Track 5 accurately ripped (confidence 2) [FB60A148] (AR v2)Track 6 accurately ripped (confidence 2) [339EC1A0] (AR v2)Track 7 accurately ripped (confidence 2) [47940116] (AR v2)Track 8 accurately ripped (confidence 2) [03D90C02] (AR v2)Track 9 accurately ripped (confidence 2) [F7ED5A3C] (AR v2)Track 10 accurately ripped (confidence 2) [82F183F7] (AR v2)Track 11 accurately ripped (confidence 2) [8946D160] (AR v2)Track 12 accurately ripped (confidence 2) [F3B09EC2] (AR v2)

All tracks accurately ripped

End of status report

==== Log checksum 222F95C22A001E1568C1A4A92D1354B8FC7634EA70DC153B54553F6B634FFABE ====
Exact Audio Copy V1.0 beta 3 from 29. August 2011

EAC extraction logfile from 17. December 2012, 18:36

Paul & Linda McCartney / RAM (2012 Remaster) CD4

Used drive : ATAPI iHAS124 B Adapter: 2 ID: 0

Read mode : SecureUtilize accurate stream : YesDefeat audio cache : YesMake use of C2 pointers : No

Read offset correction : 6Overread into Lead-In and Lead-Out : NoFill up missing offset samples with silence : YesDelete leading and trailing silent blocks : NoNull samples used in CRC calculations : YesUsed interface : Native Win32 interface for Win NT & 2000

Used output format : User Defined EncoderSelected bitrate : 1024 kBit/sQuality : HighAdd ID3 tag : NoCommand line compressor : C:\Program Files (x86)\Exact Audio Copy\FLAC\FLAC.EXEAdditional command line options : -8 -V -T "ARTIST=%artist%" -T "TITLE=%title%" -T "ALBUM=%albumtitle%" -T "DATE=%year%" -T "TRACKNUMBER=%tracknr%" -T "GENRE=%genre%" -T "PERFORMER=%albuminterpret%" -T "COMPOSER=%composer%" %haslyrics%--tag-from-file=LYRICS="%lyricsfile%"%haslyrics% -T "ALBUMARTIST=%albumartist%" -T "DISCNUMBER=%cdnumber%" -T "TOTALDISCS=%totalcds%" -T "TOTALTRACKS=%numtracks%" -T "COMMENT=%comment%" %source% -o %dest%

TOC of the extracted CD

Track | Start | Length | Start sector | End sector --------------------------------------------------------- 1 | 0:00.00 | 4:32.67 | 0 | 20466 2 | 4:32.67 | 3:41.71 | 20467 | 37112 3 | 8:14.63 | 2:52.30 | 37113 | 50042 4 | 11:07.18 | 2:51.31 | 50043 | 62898 5 | 13:58.49 | 4:58.27 | 62899 | 85275 6 | 18:57.01 | 4:41.31 | 85276 | 106381 7 | 23:38.32 | 2:27.02 | 106382 | 117408 8 | 26:05.34 | 4:39.23 | 117409 | 138356 9 | 30:44.57 | 3:30.43 | 138357 | 154149 10 | 34:15.25 | 5:49.58 | 154150 | 180382 11 | 40:05.08 | 4:54.26 | 180383 | 202458

Range status and errors

Selected range

Filename G:\CD\Paul & Linda McCartney - RAM CD4.wav

Peak level 100.0 % Extraction speed 3.2 X Range quality 100.0 % Test CRC 286DE0EC Copy CRC 286DE0EC Copy OK

No errors occurred

AccurateRip summary

Track 1 accurately ripped (confidence 2) [11BDC14A] (AR v2)Track 2 accurately ripped (confidence 2) [2B306A3D] (AR v2)Track 3 accurately ripped (confidence 2) [09D384BB] (AR v2)Track 4 accurately ripped (confidence 2) [9F8AC79F] (AR v2)Track 5 accurately ripped (confidence 2) [7A9E274B] (AR v2)Track 6 accurately ripped (confidence 2) [933DC607] (AR v2)Track 7 accurately ripped (confidence 2) [8163A450] (AR v2)Track 8 accurately ripped (confidence 2) [C8569BAC] (AR v2)Track 9 accurately ripped (confidence 2) [795C2F78] (AR v2)Track 10 accurately ripped (confidence 2) [6A4C8CD6] (AR v2)Track 11 accurately ripped (confidence 2) [47BA42D4] (AR v2)

All tracks accurately ripped

End of status report

==== Log checksum 5E8386501251098DBB191EBCAA56B27E1455566B454462167551281F2F7ED084 ====
Треклист:
01. Band On The Run - 5:14
02. Jet - 4:09
03. Bluebird - 3:25
04. Mrs. Vandebilt - 4:42
05. Let Me Roll It - 4:50
06. Mamunia - 4:51
07. No Words - 2:36
08. Picasso's Last Words (Drink To Me) - 5:49
09. Nineteen Hundred And Eighty Five - 5:32
01. Helen Wheels - 3:48
02. Country Dreamer - 3:10
03. Bluebird (from One Hand Clapping) - 3:29
04. Jet (from One Hand Clapping) - 3:58
05. Let Me Roll It (from One Hand Clapping) - 4:25
06. Band On The Run (from One Hand Clapping) - 5:15
07. Nineteen Hundred And Eighty Five (from One Hand Clapping) - 6:00
08. Country Dreamer (from One Hand Clapping) - 2:17
09. Zoo Gang - 2:01
01. Paul McCartney - Band On The Run (Nicely Toasted Mix) - 1:12
02. Band On The Run (Original) (Background) - Paul McCartney - 2:17
03. Band On The Run (Barn Rehearsal - 21st July 1989) - 4:59
04. Paul McCartney - Mamunia (Original) (Background); Denny Lane; Mamunia (Origin... - 4:23
05. Bluebird (Live - Version - Australia 1975) - 0:55
06. Bluebird (Original) - Paul McCartney - 0:23
07. Paul McCartney - No Words (Original) (Background) - Geoff Emerick - 1:24
08. No Words (Original) - Paul McCartney - Tony Visconti; Band On The Run (Origin... - 1:47
09. Jet (Original From Picasso's Last Words) (Background); Paul McCartney; Jet (O... - 2:55
10. Jet (Berlin Soundcheck - 3rd September 1993) - 3:52
11. Paul McCartney - Clive Arrowsmith - 1:44
12. Nineteen Hundred And Eighty Five (Original) (Background); Paul McCartney; Jam... - 3:24
13. Mrs Vandeblit (Original) (Background) - Paul McCartney - Kenny Lynch - 2:10
14. Let Me Roll It (Cardington Rehearsal - 5th February 1993) - Paul McCartney - 3:52
15. Paul McCartney - Mrs Vandeblit (Background); Michael Parkinson; Linda McCart... - 2:26
16. Helen Wheels (Crazed) - Paul McCartney - Christopher Lee - 5:32
17. Band On The Run (Strum Bit) - Paul McCartney - Clement Freud - 1:01
18. Picasso's Last Words (Original) (Background) - Paul McCartney - Dustin Hoffman - 4:22
19. Picasso's Last Words (Drink To Me) (Acoustic Version) - 1:11
20. Band On The Run (Nicely Toasted Mix) - Paul McCartney - 0:42
21. Band On The Run (Northern Comic Version) - 0:39

Exact Audio Copy V1.0 beta 3 from 29. August 2011

EAC extraction logfile from 17. December 2012, 13:36

Paul McCartney & Wings / Band On The Run (2010 Remaster) CD1

Used drive : ATAPI iHAS124 B Adapter: 2 ID: 0

Read mode : SecureUtilize accurate stream : YesDefeat audio cache : YesMake use of C2 pointers : No

Read offset correction : 6Overread into Lead-In and Lead-Out : NoFill up missing offset samples with silence : YesDelete leading and trailing silent blocks : NoNull samples used in CRC calculations : YesUsed interface : Native Win32 interface for Win NT & 2000

Used output format : User Defined EncoderSelected bitrate : 1024 kBit/sQuality : HighAdd ID3 tag : NoCommand line compressor : C:\Program Files (x86)\Exact Audio Copy\FLAC\FLAC.EXEAdditional command line options : -8 -V -T "ARTIST=%artist%" -T "TITLE=%title%" -T "ALBUM=%albumtitle%" -T "DATE=%year%" -T "TRACKNUMBER=%tracknr%" -T "GENRE=%genre%" -T "PERFORMER=%albuminterpret%" -T "COMPOSER=%composer%" %haslyrics%--tag-from-file=LYRICS="%lyricsfile%"%haslyrics% -T "ALBUMARTIST=%albumartist%" -T "DISCNUMBER=%cdnumber%" -T "TOTALDISCS=%totalcds%" -T "TOTALTRACKS=%numtracks%" -T "COMMENT=%comment%" %source% -o %dest%

TOC of the extracted CD

Track | Start | Length | Start sector | End sector --------------------------------------------------------- 1 | 0:00.00 | 5:13.65 | 0 | 23539 2 | 5:13.65 | 4:09.02 | 23540 | 42216 3 | 9:22.67 | 3:25.25 | 42217 | 57616 4 | 12:48.17 | 4:41.60 | 57617 | 78751 5 | 17:30.02 | 4:50.28 | 78752 | 100529 6 | 22:20.30 | 4:50.67 | 100530 | 122346 7 | 27:11.22 | 2:36.18 | 122347 | 134064 8 | 29:47.40 | 5:49.32 | 134065 | 160271 9 | 35:36.72 | 5:31.64 | 160272 | 185160

Range status and errors

Selected range

Filename G:\CD\Band On The Run CD1.wav

Peak level 98.3 % Extraction speed 5.9 X Range quality 100.0 % Test CRC 383FBDE6 Copy CRC 383FBDE6 Copy OK

No errors occurred

AccurateRip summary

Track 1 accurately ripped (confidence 33) [A172C281] (AR v2)Track 2 accurately ripped (confidence 33) [B890E9F2] (AR v2)Track 3 accurately ripped (confidence 33) [BED4638B] (AR v2)Track 4 accurately ripped (confidence 33) [5B3BB4AC] (AR v2)Track 5 accurately ripped (confidence 33) [8A7F26B1] (AR v2)Track 6 accurately ripped (confidence 31) [187D37AF] (AR v2)Track 7 accurately ripped (confidence 33) [03341E59] (AR v2)Track 8 accurately ripped (confidence 32) [E7BBDCC7] (AR v2)Track 9 accurately ripped (confidence 31) [77F4E761] (AR v2)

All tracks accurately ripped

End of status report

==== Log checksum 7C95EE3DA1EA511DEAE1337C1C2F6F9EB4C1CFA71774A81C393EFDB69BB29013 ====
Exact Audio Copy V1.0 beta 3 from 29. August 2011

EAC extraction logfile from 17. December 2012, 14:09

Paul McCartney & Wings / Band On The Run (2010 Remaster) CD2

Used drive : ATAPI iHAS124 B Adapter: 2 ID: 0

Read mode : SecureUtilize accurate stream : YesDefeat audio cache : YesMake use of C2 pointers : No

Read offset correction : 6Overread into Lead-In and Lead-Out : NoFill up missing offset samples with silence : YesDelete leading and trailing silent blocks : NoNull samples used in CRC calculations : YesUsed interface : Native Win32 interface for Win NT & 2000

Used output format : User Defined EncoderSelected bitrate : 1024 kBit/sQuality : HighAdd ID3 tag : NoCommand line compressor : C:\Program Files (x86)\Exact Audio Copy\FLAC\FLAC.EXEAdditional command line options : -8 -V -T "ARTIST=%artist%" -T "TITLE=%title%" -T "ALBUM=%albumtitle%" -T "DATE=%year%" -T "TRACKNUMBER=%tracknr%" -T "GENRE=%genre%" -T "PERFORMER=%albuminterpret%" -T "COMPOSER=%composer%" %haslyrics%--tag-from-file=LYRICS="%lyricsfile%"%haslyrics% -T "ALBUMARTIST=%albumartist%" -T "DISCNUMBER=%cdnumber%" -T "TOTALDISCS=%totalcds%" -T "TOTALTRACKS=%numtracks%" -T "COMMENT=%comment%" %source% -o %dest%

TOC of the extracted CD

Track | Start | Length | Start sector | End sector --------------------------------------------------------- 1 | 0:00.00 | 3:47.39 | 0 | 17063 2 | 3:47.39 | 3:09.52 | 17064 | 31290 3 | 6:57.16 | 3:28.64 | 31291 | 46954 4 | 10:26.05 | 3:57.53 | 46955 | 64782 5 | 14:23.58 | 4:25.34 | 64783 | 84691 6 | 18:49.17 | 5:14.56 | 84692 | 108297 7 | 24:03.73 | 5:59.71 | 108298 | 135293 8 | 30:03.69 | 2:16.66 | 135294 | 145559 9 | 32:20.60 | 2:01.34 | 145560 | 154668

Range status and errors

Selected range

Filename G:\CD\Band On The Run CD2.wav

Peak level 97.7 % Extraction speed 3.0 X Range quality 100.0 % Test CRC CF6D6DB6 Copy CRC CF6D6DB6 Copy OK

No errors occurred

AccurateRip summary

Track 1 accurately ripped (confidence 25) [FEA0D05B] (AR v2)Track 2 accurately ripped (confidence 25) [2E456A93] (AR v2)Track 3 accurately ripped (confidence 26) [7E1C1183] (AR v2)Track 4 accurately ripped (confidence 26) [233FE820] (AR v2)Track 5 accurately ripped (confidence 26) [F2AD43B6] (AR v2)Track 6 accurately ripped (confidence 26) [51D22267] (AR v2)Track 7 accurately ripped (confidence 26) [9E3380FA] (AR v2)Track 8 accurately ripped (confidence 26) [F2D2FEAD] (AR v2)Track 9 accurately ripped (confidence 26) [65536A72] (AR v2)

All tracks accurately ripped

End of status report

==== Log checksum 4AE3D15DE76A0ABE377A35B40C42E648DE9920DF885FD30658A5F90423739283 ====
Exact Audio Copy V1.0 beta 3 from 29. August 2011

EAC extraction logfile from 17. December 2012, 14:45

Paul McCartney & Wings / Band On The Run (2010 Remaster) CD3

Used drive : ATAPI iHAS124 B Adapter: 2 ID: 0

Read mode : SecureUtilize accurate stream : YesDefeat audio cache : YesMake use of C2 pointers : No

Read offset correction : 6Overread into Lead-In and Lead-Out : NoFill up missing offset samples with silence : YesDelete leading and trailing silent blocks : NoNull samples used in CRC calculations : YesUsed interface : Native Win32 interface for Win NT & 2000

Used output format : User Defined EncoderSelected bitrate : 1024 kBit/sQuality : HighAdd ID3 tag : NoCommand line compressor : C:\Program Files (x86)\Exact Audio Copy\FLAC\FLAC.EXEAdditional command line options : -8 -V -T "ARTIST=%artist%" -T "TITLE=%title%" -T "ALBUM=%albumtitle%" -T "DATE=%year%" -T "TRACKNUMBER=%tracknr%" -T "GENRE=%genre%" -T "PERFORMER=%albuminterpret%" -T "COMPOSER=%composer%" %haslyrics%--tag-from-file=LYRICS="%lyricsfile%"%haslyrics% -T "ALBUMARTIST=%albumartist%" -T "DISCNUMBER=%cdnumber%" -T "TOTALDISCS=%totalcds%" -T "TOTALTRACKS=%numtracks%" -T "COMMENT=%comment%" %source% -o %dest%

TOC of the extracted CD

Track | Start | Length | Start sector | End sector --------------------------------------------------------- 1 | 0:00.00 | 1:11.53 | 0 | 5377 2 | 1:11.53 | 2:16.59 | 5378 | 15636 3 | 3:28.37 | 4:59.24 | 15637 | 38085 4 | 8:27.61 | 4:22.41 | 38086 | 57776 5 | 12:50.27 | 0:54.52 | 57777 | 61878 6 | 13:45.04 | 0:23.01 | 61879 | 63604 7 | 14:08.05 | 1:24.35 | 63605 | 69939 8 | 15:32.40 | 1:47.00 | 69940 | 77964 9 | 17:19.40 | 2:55.13 | 77965 | 91102 10 | 20:14.53 | 3:51.64 | 91103 | 108491 11 | 24:06.42 | 1:44.14 | 108492 | 116305 12 | 25:50.56 | 3:24.16 | 116306 | 131621 13 | 29:14.72 | 2:10.37 | 131622 | 141408 14 | 31:25.34 | 3:51.72 | 141409 | 158805 15 | 35:17.31 | 2:25.40 | 158806 | 169720 16 | 37:42.71 | 5:32.26 | 169721 | 194646 17 | 43:15.22 | 1:00.61 | 194647 | 199207 18 | 44:16.08 | 4:21.62 | 199208 | 218844 19 | 48:37.70 | 1:10.65 | 218845 | 224159 20 | 49:48.60 | 0:41.45 | 224160 | 227279 21 | 50:30.30 | 0:38.57 | 227280 | 230186

Range status and errors

Selected range

Filename G:\CD\Band On The Run CD3.wav

Peak level 98.8 % Extraction speed 3.3 X Range quality 100.0 % Test CRC A2774D38 Copy CRC A2774D38 Copy OK

No errors occurred

AccurateRip summary

Track 1 accurately ripped (confidence 3) [796BDA97] (AR v1)Track 2 accurately ripped (confidence 3) [D9B6351D] (AR v1)Track 3 accurately ripped (confidence 3) [6F8DFCA1] (AR v1)Track 4 accurately ripped (confidence 3) [2DA5CA45] (AR v1)Track 5 accurately ripped (confidence 3) [F3AA1258] (AR v1)Track 6 accurately ripped (confidence 3) [8E444587] (AR v1)Track 7 accurately ripped (confidence 3) [ECE99326] (AR v1)Track 8 accurately ripped (confidence 3) [48A00411] (AR v1)Track 9 accurately ripped (confidence 3) [57424B15] (AR v1)Track 10 accurately ripped (confidence 3) [0C7357AB] (AR v1)Track 11 accurately ripped (confidence 3) [27C5FBEB] (AR v1)Track 12 accurately ripped (confidence 3) [B959F8CA] (AR v1)Track 13 accurately ripped (confidence 3) [1E9D8B7F] (AR v1)Track 14 accurately ripped (confidence 3) [966104F0] (AR v1)Track 15 accurately ripped (confidence 3) [AC94D5AB] (AR v1)Track 16 accurately ripped (confidence 3) [CDA66BF9] (AR v1)Track 17 accurately ripped (confidence 3) [148E7631] (AR v1)Track 18 accurately ripped (confidence 3) [2D155E30] (AR v1)Track 19 accurately ripped (confidence 3) [DAB4C484] (AR v1)Track 20 accurately ripped (confidence 3) [9C80FE2D] (AR v1)Track 21 accurately ripped (confidence 3) [F3EBD991] (AR v1)

All tracks accurately ripped

End of status report

==== Log checksum DE7D310045FF5C49D600A738F396688580C178B9827FE68D1BDEB5F6C52B44D6 ====
Треклист:
01. Coming Up - 3:54
02. Temporary Secretary - 3:16
03. On The Way - 3:41
04. Waterfalls - 4:46
05. Nobody Knows - 2:55
06. Front Parlour - 3:34
07. Summer's Day Song - 3:26
08. Frozen Japanese - 3:41
09. Bogey Music - 3:28
10. Darkroom - 2:22
11. One Of These Days - 3:39
01. Blue Sway (wiith Richard Niles Orchestration) - 4:37
02. Coming Up (Live At Glasgow - 1979) - 4:10
03. Check My Machine (Edit) - 5:52
04. Bogey Wobble (Bonus Track) - 3:01
05. Secret Friend (Full Length Version) - 10:32
06. Mr H Atom + You Know I'll Get You Baby (Bonus Track) - 5:57
07. Wonderful Christmastime (Edited Version) - 3:49
08. All You Horse Riders + Blue Sway (Bonus Track) - 10:15
01. Coming Up (Full Length Version) - 5:37
02. Front Parlour (Full Length Version) - 5:17
03. Frozen Jap (Full Length Version) - 5:45
04. Darkroom (Full Length Version) - 3:48
05. Check My Machine (Full Length Version) - 8:59
06. Wonderful Christmastime (Full Length Version) - 4:18
07. Summer's Day Song (Original without vocals) - 3:28
08. Waterfalls (DJ Edit) - 3:24

Exact Audio Copy V1.0 beta 3 from 29. August 2011

EAC extraction logfile from 17. December 2012, 16:00

Paul McCartney / McCartney II (2011 Remaster) CD1

Used drive : ATAPI iHAS124 B Adapter: 2 ID: 0

Read mode : SecureUtilize accurate stream : YesDefeat audio cache : YesMake use of C2 pointers : No

Read offset correction : 6Overread into Lead-In and Lead-Out : NoFill up missing offset samples with silence : YesDelete leading and trailing silent blocks : NoNull samples used in CRC calculations : YesUsed interface : Native Win32 interface for Win NT & 2000

Used output format : User Defined EncoderSelected bitrate : 1024 kBit/sQuality : HighAdd ID3 tag : NoCommand line compressor : C:\Program Files (x86)\Exact Audio Copy\FLAC\FLAC.EXEAdditional command line options : -8 -V -T "ARTIST=%artist%" -T "TITLE=%title%" -T "ALBUM=%albumtitle%" -T "DATE=%year%" -T "TRACKNUMBER=%tracknr%" -T "GENRE=%genre%" -T "PERFORMER=%albuminterpret%" -T "COMPOSER=%composer%" %haslyrics%--tag-from-file=LYRICS="%lyricsfile%"%haslyrics% -T "ALBUMARTIST=%albumartist%" -T "DISCNUMBER=%cdnumber%" -T "TOTALDISCS=%totalcds%" -T "TOTALTRACKS=%numtracks%" -T "COMMENT=%comment%" %source% -o %dest%

TOC of the extracted CD

Track | Start | Length | Start sector | End sector --------------------------------------------------------- 1 | 0:00.00 | 3:54.03 | 0 | 17552 2 | 3:54.03 | 3:16.29 | 17553 | 32281 3 | 7:10.32 | 3:40.50 | 32282 | 48831 4 | 10:51.07 | 4:46.15 | 48832 | 70296 5 | 15:37.22 | 2:54.44 | 70297 | 83390 6 | 18:31.66 | 3:33.55 | 83391 | 99420 7 | 22:05.46 | 3:26.11 | 99421 | 114881 8 | 25:31.57 | 3:41.13 | 114882 | 131469 9 | 29:12.70 | 3:28.30 | 131470 | 147099 10 | 32:41.25 | 2:22.05 | 147100 | 157754 11 | 35:03.30 | 3:39.08 | 157755 | 174187

Range status and errors

Selected range

Filename G:\CD\Paul McCartney - McCartney II CD1.wav

Peak level 98.4 % Extraction speed 3.1 X Range quality 100.0 % Test CRC B22A5851 Copy CRC B22A5851 Copy OK

No errors occurred

AccurateRip summary

Track 1 accurately ripped (confidence 5) [14B9FE22] (AR v2)Track 2 accurately ripped (confidence 5) [375FFAC0] (AR v2)Track 3 accurately ripped (confidence 5) [6DE89C97] (AR v2)Track 4 accurately ripped (confidence 5) [5859AA04] (AR v2)Track 5 accurately ripped (confidence 5) [3121FC35] (AR v2)Track 6 accurately ripped (confidence 5) [33A0845C] (AR v2)Track 7 accurately ripped (confidence 5) [6815B404] (AR v2)Track 8 accurately ripped (confidence 5) [F7D4BDEA] (AR v2)Track 9 accurately ripped (confidence 5) [AB7281AB] (AR v2)Track 10 accurately ripped (confidence 5) [081E68CB] (AR v2)Track 11 accurately ripped (confidence 5) [F07A6340] (AR v2)

All tracks accurately ripped

End of status report

==== Log checksum E6E82C8E0390DF495310CEC2959C783886612E3BD2BC691C04DED41E07ABE28D ====
Exact Audio Copy V1.0 beta 3 from 29. August 2011

EAC extraction logfile from 17. December 2012, 16:24

Paul McCartney / McCartney II (2011 Remaster) CD2

Used drive : ATAPI iHAS124 B Adapter: 2 ID: 0

Read mode : SecureUtilize accurate stream : YesDefeat audio cache : YesMake use of C2 pointers : No

Read offset correction : 6Overread into Lead-In and Lead-Out : NoFill up missing offset samples with silence : YesDelete leading and trailing silent blocks : NoNull samples used in CRC calculations : YesUsed interface : Native Win32 interface for Win NT & 2000

Used output format : User Defined EncoderSelected bitrate : 1024 kBit/sQuality : HighAdd ID3 tag : NoCommand line compressor : C:\Program Files (x86)\Exact Audio Copy\FLAC\FLAC.EXEAdditional command line options : -8 -V -T "ARTIST=%artist%" -T "TITLE=%title%" -T "ALBUM=%albumtitle%" -T "DATE=%year%" -T "TRACKNUMBER=%tracknr%" -T "GENRE=%genre%" -T "PERFORMER=%albuminterpret%" -T "COMPOSER=%composer%" %haslyrics%--tag-from-file=LYRICS="%lyricsfile%"%haslyrics% -T "ALBUMARTIST=%albumartist%" -T "DISCNUMBER=%cdnumber%" -T "TOTALDISCS=%totalcds%" -T "TOTALTRACKS=%numtracks%" -T "COMMENT=%comment%" %source% -o %dest%

TOC of the extracted CD

Track | Start | Length | Start sector | End sector --------------------------------------------------------- 1 | 0:00.00 | 4:37.00 | 0 | 20774 2 | 4:37.00 | 4:10.08 | 20775 | 39532 3 | 8:47.08 | 5:51.62 | 39533 | 65919 4 | 14:38.70 | 3:01.23 | 65920 | 79517 5 | 17:40.18 | 10:32.03 | 79518 | 126920 6 | 28:12.21 | 5:56.62 | 126921 | 153682 7 | 34:09.08 | 3:48.52 | 153683 | 170834 8 | 37:57.60 | 10:15.24 | 170835 | 216983

Range status and errors

Selected range

Filename G:\CD\Paul McCartney - McCartney II CD2.wav

Peak level 98.2 % Extraction speed 3.3 X Range quality 100.0 % Test CRC 84E8F80D Copy CRC 84E8F80D Copy OK

No errors occurred

AccurateRip summary

Track 1 accurately ripped (confidence 5) [2D5F4F6F] (AR v2)Track 2 accurately ripped (confidence 5) [73979EB8] (AR v2)Track 3 accurately ripped (confidence 5) [9D5F7A63] (AR v2)Track 4 accurately ripped (confidence 5) [F5C44AD4] (AR v2)Track 5 accurately ripped (confidence 5) [1F5574F7] (AR v2)Track 6 accurately ripped (confidence 4) [6C1A53D4] (AR v2)Track 7 accurately ripped (confidence 4) [D1A948C0] (AR v2)Track 8 accurately ripped (confidence 4) [77F257C4] (AR v2)

All tracks accurately ripped

End of status report

==== Log checksum E5113A888DBC37B9CF6500DA4DF719E0595EE869C14366802BCDEBE85ADECE8D ====
Exact Audio Copy V1.0 beta 3 from 29. August 2011

EAC extraction logfile from 17. December 2012, 16:46

Paul McCartney / McCartney II (2011 Remaster) CD3

Used drive : ATAPI iHAS124 B Adapter: 2 ID: 0

Read mode : SecureUtilize accurate stream : YesDefeat audio cache : YesMake use of C2 pointers : No

Read offset correction : 6Overread into Lead-In and Lead-Out : NoFill up missing offset samples with silence : YesDelete leading and trailing silent blocks : NoNull samples used in CRC calculations : YesUsed interface : Native Win32 interface for Win NT & 2000

Used output format : User Defined EncoderSelected bitrate : 1024 kBit/sQuality : HighAdd ID3 tag : NoCommand line compressor : C:\Program Files (x86)\Exact Audio Copy\FLAC\FLAC.EXEAdditional command line options : -8 -V -T "ARTIST=%artist%" -T "TITLE=%title%" -T "ALBUM=%albumtitle%" -T "DATE=%year%" -T "TRACKNUMBER=%tracknr%" -T "GENRE=%genre%" -T "PERFORMER=%albuminterpret%" -T "COMPOSER=%composer%" %haslyrics%--tag-from-file=LYRICS="%lyricsfile%"%haslyrics% -T "ALBUMARTIST=%albumartist%" -T "DISCNUMBER=%cdnumber%" -T "TOTALDISCS=%totalcds%" -T "TOTALTRACKS=%numtracks%" -T "COMMENT=%comment%" %source% -o %dest%

TOC of the extracted CD

Track | Start | Length | Start sector | End sector --------------------------------------------------------- 1 | 0:00.00 | 5:37.13 | 0 | 25287 2 | 5:37.13 | 5:16.65 | 25288 | 49052 3 | 10:54.03 | 5:44.42 | 49053 | 74894 4 | 16:38.45 | 3:47.66 | 74895 | 91985 5 | 20:26.36 | 8:59.13 | 91986 | 132423 6 | 29:25.49 | 4:17.65 | 132424 | 151763 7 | 33:43.39 | 3:28.36 | 151764 | 167399 8 | 37:12.00 | 3:23.56 | 167400 | 182680

Range status and errors

Selected range

Filename G:\CD\Paul McCartney - McCartney II CD3.wav

Peak level 99.3 % Extraction speed 3.1 X Range quality 100.0 % Test CRC CD88A9BD Copy CRC CD88A9BD Copy OK

No errors occurred

AccurateRip summary

Track 1 not present in databaseTrack 2 not present in databaseTrack 3 not present in databaseTrack 4 not present in databaseTrack 5 not present in databaseTrack 6 not present in databaseTrack 7 not present in databaseTrack 8 not present in database

None of the tracks are present in the AccurateRip database

End of status report

==== Log checksum F50E2C0CE1D37A36F6E393A3EB423BB55E2E3655647C6B0F1F0240093C18F5CA ====

Изменение от 6 января 2013 года.
В раздачу не попали 2 скана. Восполняем этот пробел. Добавлены сканы страниц #30 и #31 второго буклета 1971 - RAM.
Также исправлена ошибка в названии двух сканов. Опечатка.

PS. Сканов буклета A Small Book of Sheep из комплекта 1971 - RAM в раздаче нет. Технически невозможно сканировать это буклет не повредив оригинал (без обратимых последствий).


Трекер:  [ 06-Янв-2013 11:31 ]

  

Скачать .torrent

Размер .torrent файла 117 KB


Размер: 4.85 GB
Хэш (hash) релиза: 26189b704a13f028f47dffc172eb70513180612a

Еще никто не оставлял запись к записи скачать торрент Paul McCartney - Paul McCartney Archive Collection - McCartney I&II, Ram, Band on The Run . Будь первым!

!Обратная связь