Скачать через торрент Зaлoжницa 2 бесплатно русская версия torrent активатор

Если у вас наблюдаются проблемы со скриншотами, переходом по ссылками, скачиванием торрентов - проблемы в блокировщике рекламы AdBlock. #хорошегоДня!


Статистика раздачи
Размер:  1.19 GB   |    Зарегистрирован:  4 года 9 месяцев   |    .torrent скачан:  38 раз   |   
Раздают:  1  
   
Загрузка...
 
Автор Сообщение

L


Зaлoжницa 2 [Расширенная версия] / Таkеn 2 [Unrated]

Год выпуска: 2012
Страна: Франция
Жанр: Боевик, триллер, драма, криминал
Продолжительность: 01:38:18
Рейтинг MPAA: PG-13
Перевод: Профессиональный (дублированный)
Оригинальная аудиодорожка: есть
Cубтитры: русские и английские
Доп. информация: ЭТО РАСШИРЕННАЯ ВЕРСИЯ, ОТСУТСТВУЮТ ПЕРЕВОДЫ В ФРАГМЕНТАХ, КОТОРЫЕ ОБРЕЗАНЫ И НЕ ПРЕДСТАВЛЕНЫ В ТЕАТРАЛЬНОЙ ВЕРСИИ. ПОЛЬЗУЙТЕСЬ РУССКИМИ СУБТИТРАМИ В КАЧЕСТВЕ ПЕРЕВОДА В ЭТИХ МЕСТАХ.
Режиссёр: Oливьe Meгaтoн
Сценарий: Люк Бeccoн, Роберт Марк Кэмен
Продюссер: Люк Бeccoн, Дилой Гюлюн, Мишель Мандавилль
В ролях: Лиам Нисон, Мэгги Грэйс, Фамке Янссен, Лиленд Орсер, Джон Грайз, Д.Б. Суини, Люк Граймс, Раде Шербеджия, Кеворк Маликян, Ален Фиглаж

Описание:
Брайану Миллсу придется расхлебывать последствия своих действий. Спасая свою дочь, он убил главаря банды, у которого — сюрприз! — есть отец по имени Мурад. Мурад жаждет отмщения и описывается как человек, отдающий приказы, но сам никогда никому не подчиняющийся. Мурад берет в заложники Миллса с супругой, и тут уже Ким Миллс нужно будет спасать своих родителей.

Качество исходника: BDRip 1080p
Качество: HDRip
Разрешение: 480p
Формат: MP4
Видео: H.264, 640x352 (852x352 анаморф), ~2.4:1, 1500 Kbps, 23.976 fps
Аудио: Русский, AAC, 2 канала, 48.0 KHz, 128 Kbps, F L,R
Аудио №2: Английский, AAC, 2 канала, 48.0 KHz, 96 Kbps F L,R
Media Type: MovieXID: Apple:vendor_id:2012-575094255Content ID: 575094255ScreenWriters: Люк Бессон, Роберт Марк КэменProducers: Люк Бессон, Дилой Гюлюн, Мишель МандавилльDirector: Оливье МегатонCast: Лиам Нисон, Мэгги Грэйс, Фамке Янссен, Лиленд Орсер, Джон Грайз, Д.Б. Суини, Люк Граймс, Раде Шербеджия, Кеворк Маликян, Ален ФиглажRating: PG-13Long Description: Брайану Миллсу придется расхлебывать последствия своих действий. Спасая свою дочь, он убил главаря банды, у которого — сюрприз! — есть отец по имени Мурад. Мурад жаждет отмщения и описывается как человек, отдающий приказы, но сам никогда никому не подчиняющийся. Мурад берет в заложники Миллса с супругой, и тут уже Ким Миллс нужно будет спасать своих родителей.Description: Брайану Миллсу придется расхлебывать последствия своих действий. Спасая свою дочь, он убил главаря банды, у которого — сюрприз! — есть отец по имени Мурад. Мурад жаждет отмщения и описывается как человек, отдающий приказы, но сам...Release Date: 2012-09-07T07:00:00ZGenre: боевик, триллер, криминалArtist: Оливье МегатонName: Заложница 2
GeneralComplete name : C:\Users\Vítek Mladějovský\Desktop\Зaлoжницa 2 [Расширенная версия], Таkеn 2 [Unrated].mp4Format : MPEG-4Format profile : Base MediaCodec ID : isomFile size : 1.19 GiBDuration : 1h 38mnOverall bit rate mode : VariableOverall bit rate : 1 729 KbpsMovie name : Заложница 2Performer : Оливье МегатонGenre : боевик, триллер, криминалRecorded date : UTC 2012-09-07 07:00:00Encoded date : UTC 2013-01-04 21:13:25Tagged date : UTC 2013-01-05 21:47:20Writing application : Yamb 2.1.0.0 []http://yamb.unite-video.com]Cover : Yesdesc : Брайану Миллсу придется расхлебывать последствия своих действий. Спасая свою дочь, он убил главаря банды, у которого — сюрприз! — есть отец по имени Мурад. Мурад жаждет отмщения и описывается как человек, отдающий приказы, но сам...ldes : Брайану Миллсу придется расхлебывать последствия своих действий. Спасая свою дочь, он убил главаря банды, у которого — сюрприз! — есть отец по имени Мурад. Мурад жаждет отмщения и описывается как человек, отдающий приказы, но сам никогда никому не подчиняющийся. Мурад берет в заложники Миллса с супругой, и тут уже Ким Миллс нужно будет спасать своих родителей.hdvd : 0stik : 9cnID : 575094255xid : Apple:vendor_id:2012-575094255iTunEXTC : PG-13iTunMOVI : <?xml version="1.0" encoding="UTF-8"?> / <!DOCTYPE plist PUBLIC "-//Apple//DTD PLIST 1.0//EN" "http://www.apple.com/DTDs/PropertyList-1.0.dtd"> / <plist version="1.0"> / <dict> / <key>cast</key> / <array> / <dict> / <key>name</key> / <string>Лиам Нисон</string> / </dict> / <dict> / <key>name</key> / <string>Мэгги Грэйс</string> / </dict> / <dict> / <key>name</key> / <string>Фамке Янссен</string> / </dict> / <dict> / <key>name</key> / <string>Лиленд Орсер</string> / </dict> / <dict> / <key>name</key> / <string>Джон Грайз</string> / </dict> / <dict> / <key>name</key> / <string>Д.Б. Суини</string> / </dict> / <dict> / <key>name</key> / <string>Люк Граймс</string> / </dict> / <dict> / <key>name</key> / <string>Раде Шербеджия</string> / </dict> / <dict> / <key>name</key> / <string>Кеворк Маликян</string> / </dict> / <dict> / <key>name</key> / <string>Ален Фиглаж</string> / </dict> / </array> / <key>directors</key> / <array> / <dict> / <key>name</key> / <string>Оливье Мегатон</string> / </dict> / </array> / <key>producers</key> / <array> / <dict> / <key>name</key> / <string>Люк Бессон</string> / </dict> / <dict> / <key>name</key> / <string>Дилой Гюлюн</string> / </dict> / <dict> / <key>name</key> / <string>Мишель Мандавилль</string> / </dict> / </array> / <key>screenwriters</key> / <array> / <dict> / <key>name</key> / <string>Люк Бессон</string> / </dict> / <dict> / <key>name</key> / <string>Роберт Марк Кэмен</string> / </dict> / </array> / </dict> / </plist>

VideoID : 1Format : AVCFormat/Info : Advanced Video CodecFormat profile : <a href="mailto:Baseline@L3.0Format" class="postLink">Baseline@L3.0Format</a> settings, CABAC : NoFormat settings, ReFrames : 2 framesCodec ID : avc1Codec ID/Info : Advanced Video CodingDuration : 1h 38mnBit rate : 1 500 KbpsMaximum bit rate : 6 862 KbpsWidth : 640 pixelsHeight : 352 pixelsDisplay aspect ratio : 2.40:1Frame rate mode : VariableFrame rate : 23.976 fpsMinimum frame rate : 7.992 fpsMaximum frame rate : 23.981 fpsColor space : YUVChroma subsampling : 4:2:0Bit depth : 8 bitsScan type : ProgressiveBits/(Pixel*Frame) : 0.278Stream size : 1.03 GiB (87%)Writing library : x264 core 120Encoding settings : cabac=0 / ref=2 / deblock=1:0:0 / analyse=0x1:0x111 / me=umh / subme=6 / psy=1 / psy_rd=1.00:0.00 / mixed_ref=1 / me_range=16 / chroma_me=1 / trellis=0 / 8x8dct=0 / cqm=0 / deadzone=21,11 / fast_pskip=1 / chroma_qp_offset=-2 / threads=3 / sliced_threads=0 / nr=0 / decimate=1 / interlaced=0 / bluray_compat=0 / constrained_intra=0 / bframes=0 / weightp=0 / keyint=240 / keyint_min=24 / scenecut=40 / intra_refresh=0 / rc_lookahead=40 / rc=2pass / mbtree=1 / bitrate=1500 / ratetol=1.0 / qcomp=0.60 / qpmin=3 / qpmax=69 / qpstep=4 / cplxblur=20.0 / qblur=0.5 / vbv_maxrate=5000 / vbv_bufsize=5000 / nal_hrd=none / ip_ratio=1.40 / aq=1:1.00Encoded date : UTC 2013-01-05 17:36:06Tagged date : UTC 2013-01-04 21:17:21Color primaries : BT.709-5, BT.1361, IEC 61966-2-4, SMPTE RP177Transfer characteristics : BT.709-5, BT.1361Matrix coefficients : BT.709-5, BT.1361, IEC 61966-2-4 709, SMPTE RP177

Audio #1ID : 2Format : AACFormat/Info : Advanced Audio CodecFormat profile : LCCodec ID : 40Duration : 1h 38mnBit rate mode : VariableBit rate : 128 KbpsMaximum bit rate : 223 KbpsChannel(s) : 2 channelsChannel positions : Front: L RSampling rate : 48.0 KHzCompression mode : LossyStream size : 89.8 MiB (7%)Language : RussianEncoded date : UTC 2013-01-04 21:16:39Tagged date : UTC 2013-01-04 21:17:21

Audio #2ID : 3Format : AACFormat/Info : Advanced Audio CodecFormat profile : LCCodec ID : 40Duration : 1h 36mnBit rate mode : VariableBit rate : 96.0 KbpsMaximum bit rate : 178 KbpsChannel(s) : 2 channelsChannel positions : Front: L RSampling rate : 48.0 KHzCompression mode : LossyStream size : 66.3 MiB (5%)Language : EnglishEncoded date : UTC 2013-01-04 21:17:04Tagged date : UTC 2013-01-04 21:17:21

Text #1ID : 4Format : Timed textMuxing mode : sbtlCodec ID : tx3gDuration : 1h 31mnBit rate mode : VariableBit rate : 53 bpsStream size : 36.0 KiB (0%)Language : RussianEncoded date : UTC 2013-01-04 21:17:20Tagged date : UTC 2013-01-04 21:17:21

Text #2ID : 5Format : Timed textMuxing mode : sbtlCodec ID : tx3gDuration : 1h 36mnBit rate mode : VariableBit rate : 37 bpsStream size : 26.0 KiB (0%)Language : EnglishEncoded date : UTC 2013-01-04 21:17:20Tagged date : UTC 2013-01-04 21:17:21

Text #3ID : 6Format : Apple textCodec ID : textDuration : 1h 38mnDuration_LastFrame : -1mn 41sBit rate mode : VariableBit rate : 0 bpsStream size : 261 Bytes (0%)Encoded date : UTC 2013-01-05 21:47:20Tagged date : UTC 2013-01-05 21:47:20
x264 [info]: frame I:4768 Avg QP:16.79 size: 26609 PSNR Mean Y:46.91 U:50.36 V:50.59 Avg:47.77 Global:46.81x264 [info]: frame P:136658 Avg QP:18.63 size: 7147 PSNR Mean Y:45.32 U:48.90 V:49.32 Avg:46.20 Global:45.29x264 [info]: mb I I16..4: 22.1% 0.0% 77.9%x264 [info]: mb P I16..4: 2.1% 0.0% 4.2% P16..4: 42.3% 24.8% 9.5% 0.0% 0.0% skip:17.0%x264 [info]: coded y,uvDC,uvAC intra: 70.6% 83.6% 61.8% inter: 28.1% 26.0% 4.2%x264 [info]: i16 v,h,dc,p: 44% 19% 10% 27%x264 [info]: i4 v,h,dc,ddl,ddr,vr,hd,vl,hu: 27% 19% 14% 6% 8% 8% 6% 7% 5%x264 [info]: i8c dc,h,v,p: 47% 19% 25% 9%x264 [info]: ref P L0: 76.2% 23.8%x264 [info]: SSIM Mean Y:0.9869367 (18.839db)x264 [info]: PSNR Mean Y:45.376 U:48.953 V:49.358 Avg:46.248 Global:45.338 kb/s:1496.60


Трекер:  [ 06-Янв-2013 14:34 ]

  

Скачать .torrent

Размер .torrent файла 12 KB


Размер: 1.19 GB
Хэш (hash) релиза: e3746f98ae0a3bf6f51f5ed5b215a996516dbda0

Еще никто не оставлял запись к записи скачать торрент Зaлoжницa 2 . Будь первым!

!Обратная связь