Скачать через торрент музыку Cat Stevens - Mona Bone Jakon - 2010 бесплатно без регистрации torrent

Если у вас наблюдаются проблемы со скриншотами, переходом по ссылками, скачиванием торрентов - проблемы в блокировщике рекламы AdBlock. #хорошегоДня!


Статистика раздачи
Размер:  212 MB   |    Зарегистрирован:  4 года 10 месяцев   |    .torrent скачан:  36 раз   |   
Раздают:  1  
   
Загрузка...
 
Автор Сообщение

Galfimbul

avatar Galfimbul


Cat Stevens / Mona Bone Jakon

Жанр: Prog related/ Folk Rock
Страна-производитель диска: Germany
Год издания: 2010 (1970)
Издатель (лейбл): Universal/Island
Номер по каталогу: IMCD267/546 883-2
Страна: UK-England
Аудиокодек: FLAC (*.flac)
Тип рипа: image+.cue
Битрейт аудио: lossless
Продолжительность: 0:35:13.58
Источник (релизер): личный диск
Наличие сканов в содержимом раздачи: да
Треклист:
01. Lady D'Arbanville [0:03:45.73]
02. Maybe You're Right [0:03:25.30]
03. Pop Star [0:04:13.15]
04. I Think I See The Light [0:03:55.62]
05. Trouble [0:02:49.20]
06. Mona Bone Jakon [0:01:42.43]
07. I Wish, I Wish [0:03:50.67]
08. Katmandu [0:03:22.25]
09. Time [0:01:26.10]
10. Fill My Eyes [0:03:00.23]
11. Lilywhite [0:03:41.65]
Exact Audio Copy V1.0 beta 3 from 29. August 2011

Отчёт EAC об извлечении, выполненном 5. января 2013, 13:40

Cat Stevens / Mona Bone Jakon

Дисковод: TSSTcorpCDDVDW TS-L633J Adapter: 0 ID: 1

Режим чтения : ДостоверностьИспользование точного потока : ДаОтключение кэша аудио : ДаИспользование указателей C2 : Нет

Коррекция смещения при чтении : 6Способность читать области Lead-in и Lead-out : НетЗаполнение пропущенных сэмплов тишиной : ДаУдаление блоков с тишиной в начале и конце : НетПри вычислениях CRC использовались нулевые сэмплы : ДаИнтерфейс : Установленный внешний ASPI-интерфейс

Выходной формат : Пользовательский кодировщикВыбранный битрейт : 128 kBit/sКачество : ВысокийДобавление ID3-тега : НетУтилита сжатия : C:\Program Files\Exact Audio Copy\FLAC\FLAC.EXEДополнительные параметры : -6 -V -T "ARTIST=%artist%" -T "TITLE=%title%" -T "ALBUM=%albumtitle%" -T "DATE=%year%" -T "TRACKNUMBER=%tracknr%" -T "GENRE=%genre%" -T "COMMENT=%comment%" -T "BAND=%albuminterpret%" -T "ALBUMARTIST=%albuminterpret%" -T "COMPOSER=%composer%" %haslyrics%--tag-from-file=LYRICS="%lyricsfile%"%haslyrics% -T "DISCNUMBER=%cdnumber%" -T "TOTALDISCS=%totalcds%" -T "TOTALTRACKS=%numtracks%" %hascover%--picture="%coverfile%"%hascover% %source% -o %dest%

TOC извлечённого CD

Трек | Старт | Длительность | Начальный сектор | Конечный сектор --------------------------------------------------------------------- 1 | 0:00.32 | 3:45.73 | 32 | 16979 2 | 3:46.30 | 3:25.30 | 16980 | 32384 3 | 7:11.60 | 4:13.15 | 32385 | 51374 4 | 11:25.00 | 3:55.62 | 51375 | 69061 5 | 15:20.62 | 2:49.20 | 69062 | 81756 6 | 18:10.07 | 1:42.43 | 81757 | 89449 7 | 19:52.50 | 3:50.67 | 89450 | 106766 8 | 23:43.42 | 3:22.25 | 106767 | 121941 9 | 27:05.67 | 1:26.10 | 121942 | 128401 10 | 28:32.02 | 3:00.23 | 128402 | 141924 11 | 31:32.25 | 3:41.65 | 141925 | 158564

Характеристики диапазона извлечения и сообщения об ошибках

Выбранный диапазон

Имя файла D:\РИПЫ\CAT STEVENS 1970\Cat Stevens - Mona Bone Jakon.wav

Пиковый уровень 99.8 % Скорость извлечения 2.3 X Качество диапазона 99.9 % CRC теста 5DB6DC6D CRC копии 5DB6DC6D Копирование... OK

Ошибок не произошло

AccurateRip: сводка

Трек 1 отсутствует в базе данныхТрек 2 отсутствует в базе данныхТрек 3 отсутствует в базе данныхТрек 4 отсутствует в базе данныхТрек 5 отсутствует в базе данныхТрек 6 отсутствует в базе данныхТрек 7 отсутствует в базе данныхТрек 8 отсутствует в базе данныхТрек 9 отсутствует в базе данныхТрек 10 отсутствует в базе данныхТрек 11 отсутствует в базе данных

Ни одного трека нет в базе AccurateRip

Конец отчёта

---- CUETools DB Plugin V2.1.3

[CTDB TOCID: dV5Oy4WlU61czrMiHbewzdEc8nM-] disk not present in database, Submit result: discs with pregaps not supported in this protocol version

==== Контрольная сумма отчёта 8F0177D1FEA86F79F9EC9FF350C045ED7F8830D47F13B3FDAF2ADC5AFD4F6E59 ====
Born Steve Georgiou Jul 21, 1947 in London, England- Stevens recorded several albums of excellent folk inspired music and was one of the more 'high profile' innovators of this movement with several 'hit' singles to his credit. His later conversion to fundementalist Islam has drawn sharp criticism over the years, while his music continues to inspire with it's high quality and innovation. The ProGGnosis discography is restricted to a single release, Foreigner which is strongly progressive.
http://www.proggnosis.com/ARTIST_Detail.aspx?AID=1511
Подписав новый контракт с Island Records, Стивенс выпустил Mona Bone Jakon, альбом, записанный с продюсером Полом Сэмвеллом-Смитом, в прошлом — участником The Yardbirds. Пластинка, выстроенная на блюз- и фолк-структурах, но аранжированная очень просто, явила слушателю совсем иного Кэта Стивенса, размышляющего о смысле жизни и суетности поп-славы[11]. Сингл из альбома «Lady D’Arbanville» (#8, 1970) — посвящение покинувшей его возлюбленной, актрисе и модели Патти Д’Арбанвиль[12]) — стал хитом, поднявшись до #8 в британских чартах[10]. Аккомпанировали ему здесь на флейте Питер Гэбриэл ( вокалист Genesis), перкуссионист Харви Бернс и гитарист Алан Дэвис.
http://ru.wikipedia.org/wiki/%CA%FD%F2_%D1%F2%E8%E2%E5%ED%F1
Cat Stevens – guitar, piano, keyboards, drums, strings, vocals
Alun Davies – guitar, backing vocals
John Ryan – bass
Nicky Hopkins - keyboards
Harvey Burns – drums, percussion
Peter Gabriel – flute on "Katmandu"
Del Newman - strings, arrangements


Трекер:  [ 05-Янв-2013 17:43 ]

  

Скачать .torrent

Размер .torrent файла 17 KB


Размер: 212 MB
Хэш (hash) релиза: dbdb2b8b9743c084ae5e7f3e51f292cadf31b903

Еще никто не оставлял запись к записи скачать торрент Cat Stevens - Mona Bone Jakon - 2010 . Будь первым!

!Обратная связь