Скачать через торрент музыку Billy Thorpe - Tangier - 2010, FLAC бесплатно без регистрации torrent

Если у вас наблюдаются проблемы со скриншотами, переходом по ссылками, скачиванием торрентов - проблемы в блокировщике рекламы AdBlock. #хорошегоДня!


Статистика раздачи
Размер:  351 MB   |    Зарегистрирован:  4 года 10 месяцев   |    .torrent скачан:  25 раз   |   
Раздают:  1  
   
Загрузка...
 
Автор Сообщение

Galfimbul

avatar Galfimbul


Billy Thorpe / Tangier

Жанр: Prog Related
Год издания: 2010
Страна: Australia
Аудиокодек: FLAC (*.flac)
Тип рипа: tracks+.cue
Битрейт аудио: lossless
Продолжительность: 49:45
Источник (релизер): RockPaperGlue
Наличие сканов в содержимом раздачи: нет

Треклист:
1. Marrakesh - 4:54
2. A River Knows - 4:25
3. Since You've Been Gone - 5:28
4. Gypsy - 5:05
5. Tangier - 5:17
6. Fatima - 7:14
7. Long Time - 4:49
8. In A New World - 4:45
9. We Will Be There - 3:07
10. Out Of Here - 4:41

Exact Audio Copy V0.99 prebeta 5 from 4. May 2009

EAC extraction logfile from 17. January 2011, 13:59

Billy Thorpe / Tangier

Used drive : PIONEER DVD-RW DVR-110D Adapter: 3 ID: 0

Read mode : SecureUtilize accurate stream : YesDefeat audio cache : YesMake use of C2 pointers : No

Read offset correction : 48Overread into Lead-In and Lead-Out : YesFill up missing offset samples with silence : YesDelete leading and trailing silent blocks : NoNull samples used in CRC calculations : YesUsed interface : Installed external ASPI interfaceGap handling : Appended to previous track

Used output format : User Defined EncoderSelected bitrate : 1024 kBit/sQuality : HighAdd ID3 tag : NoCommand line compressor : C:\Program Files\Exact Audio Copy\Flac\flac.exeAdditional command line options : -8 -V -T "ARTIST=%a" -T "TITLE=%t" -T "ALBUM=%g" -T "DATE=%y" -T "TRACKNUMBER=%n" -T "GENRE=%m" -T "COMMENT=EAC FLAC -8" %s

TOC of the extracted CD

Track | Start | Length | Start sector | End sector --------------------------------------------------------- 1 | 0:00.00 | 4:54.41 | 0 | 22090 2 | 4:54.41 | 4:25.60 | 22091 | 42025 3 | 9:20.26 | 5:28.63 | 42026 | 66688 4 | 14:49.14 | 5:05.50 | 66689 | 89613 5 | 19:54.64 | 5:17.13 | 89614 | 113401 6 | 25:12.02 | 7:14.23 | 113402 | 145974 7 | 32:26.25 | 4:49.67 | 145975 | 167716 8 | 37:16.17 | 4:45.14 | 167717 | 189105 9 | 42:01.31 | 3:07.50 | 189106 | 203180 10 | 45:09.06 | 4:41.33 | 203181 | 224288

Track 1

Filename F:\Billy Thorpe\Tangier\01 - Marrakesh.wav

Pre-gap length 0:00:02.00

Peak level 97.7 % Track quality 99.9 % Test CRC EAC8A399 Copy CRC EAC8A399 Cannot be verified as accurate (confidence 1) [AAC3F684], AccurateRip returned [F8511350] Copy OK

Track 2

Filename F:\Billy Thorpe\Tangier\02 - A River Knows.wav

Peak level 97.7 % Track quality 100.0 % Test CRC 90E8B9DA Copy CRC 90E8B9DA Cannot be verified as accurate (confidence 1) [FD891B36], AccurateRip returned [F0F4509B] Copy OK

Track 3

Filename F:\Billy Thorpe\Tangier\03 - Since You've Been Gone.wav

Peak level 97.7 % Track quality 100.0 % Test CRC D43B578F Copy CRC D43B578F Cannot be verified as accurate (confidence 1) [EC6C54F5], AccurateRip returned [854BE251] Copy OK

Track 4

Filename F:\Billy Thorpe\Tangier\04 - Gypsy.wav

Peak level 98.8 % Track quality 100.0 % Test CRC 33D16B13 Copy CRC 33D16B13 Cannot be verified as accurate (confidence 1) [451C1FA6], AccurateRip returned [1E59FB2A] Copy OK

Track 5

Filename F:\Billy Thorpe\Tangier\05 - Tangier.wav

Peak level 97.7 % Track quality 100.0 % Test CRC 40922EC6 Copy CRC 40922EC6 Cannot be verified as accurate (confidence 1) [3B733CCF], AccurateRip returned [4636F32C] Copy OK

Track 6

Filename F:\Billy Thorpe\Tangier\06 - Fatima.wav

Peak level 98.0 % Track quality 99.9 % Test CRC 63DA57E6 Copy CRC 63DA57E6 Cannot be verified as accurate (confidence 1) [984B8325], AccurateRip returned [45B76104] Copy OK

Track 7

Filename F:\Billy Thorpe\Tangier\07 - Long Time.wav

Peak level 99.7 % Track quality 99.9 % Test CRC 79257483 Copy CRC 79257483 Cannot be verified as accurate (confidence 1) [7E2FFEBC], AccurateRip returned [6882EC45] Copy OK

Track 8

Filename F:\Billy Thorpe\Tangier\08 - In A New World.wav

Peak level 98.8 % Track quality 100.0 % Test CRC BECB99FD Copy CRC BECB99FD Cannot be verified as accurate (confidence 1) [BFD7C253], AccurateRip returned [0FE71E26] Copy OK

Track 9

Filename F:\Billy Thorpe\Tangier\09 - We Will Be There.wav

Peak level 97.5 % Track quality 100.0 % Test CRC E0548740 Copy CRC E0548740 Cannot be verified as accurate (confidence 1) [E378CE8B], AccurateRip returned [E136192A] Copy OK

Track 10

Filename F:\Billy Thorpe\Tangier\10 - Out Of Here.wav

Peak level 97.7 % Track quality 100.0 % Test CRC 32A568D4 Copy CRC 32A568D4 Cannot be verified as accurate (confidence 1) [33C36028], AccurateRip returned [FA30C37F] Copy OK

No tracks could be verified as accurateYou may have a different pressing from the one(s) in the database

No errors occurred

End of status report
REM GENRE RockREM DATE 2010REM DISCID 8A0BAE0AREM COMMENT "ExactAudioCopy v0.99pb5"FILE "01 - Marrakesh.wav" WAVE TRACK 01 AUDIO INDEX 01 00:00:00FILE "02 - A River Knows.wav" WAVE TRACK 02 AUDIO INDEX 01 00:00:00FILE "03 - Since You've Been Gone.wav" WAVE TRACK 03 AUDIO INDEX 01 00:00:00FILE "04 - Gypsy.wav" WAVE TRACK 04 AUDIO INDEX 01 00:00:00FILE "05 - Tangier.wav" WAVE TRACK 05 AUDIO INDEX 01 00:00:00FILE "06 - Fatima.wav" WAVE TRACK 06 AUDIO INDEX 01 00:00:00FILE "07 - Long Time.wav" WAVE TRACK 07 AUDIO INDEX 01 00:00:00FILE "08 - In A New World.wav" WAVE TRACK 08 AUDIO INDEX 01 00:00:00FILE "09 - We Will Be There.wav" WAVE TRACK 09 AUDIO INDEX 01 00:00:00FILE "10 - Out Of Here.wav" WAVE TRACK 10 AUDIO INDEX 01 00:00:00


Трекер:  [ 05-Янв-2013 17:43 ]

  

Скачать .torrent

Размер .torrent файла 14 KB


Размер: 351 MB
Хэш (hash) релиза: 2d41a4ece0ba0541973864454a26ef12b03a5c15

Еще никто не оставлял запись к записи скачать торрент Billy Thorpe - Tangier - 2010, FLAC . Будь первым!

!Обратная связь