Скачать через торрент музыку Rush - 2112 - 1987, FLAC бесплатно без регистрации torrent

Если у вас наблюдаются проблемы со скриншотами, переходом по ссылками, скачиванием торрентов - проблемы в блокировщике рекламы AdBlock. #хорошегоДня!


Статистика раздачи
Размер:  223 MB   |    Зарегистрирован:  4 года 7 месяцев   |    .torrent скачан:  27 раз   |   
Раздают:  1  
   
Загрузка...
 
Автор Сообщение

L


Rush / 2112

Жанр: Progressive Rock, Hard Rock
Страна-производитель диска: Canada
Год издания: 1987
Издатель (лейбл): Anthem Records Inc.
Номер по каталогу: ANC-1-1004
Страна: Canada
Аудиокодек: FLAC (*.flac)
Тип рипа: tracks+.cue
Битрейт аудио: lossless
Продолжительность: 00:38:58
Источник (релизер): What
Наличие сканов в содержимом раздачи: да
Треклист:
01. 2112 I. Overture II. The Temples of Syrinx III. Discovery IV. Presentation V. Oracle: The Dream VI. Soliloquy VII. Grand Finale (20:38)
02. A Passage To Bangkok (3:34)
03. The Twilight Zone (3:20)
04. Lessons (3:53)
05. Tears (3:34)
06. Something For Nothing (3:59)
Exact Audio Copy V0.99 prebeta 5 from 4. May 2009

EAC extraction logfile from 24. April 2010, 13:06

Rush / 2112

Used drive : HL-DT-STBD-RE GGW-H20L Adapter: 0 ID: 1

Read mode : SecureUtilize accurate stream : YesDefeat audio cache : YesMake use of C2 pointers : No

Read offset correction : 667Overread into Lead-In and Lead-Out : NoFill up missing offset samples with silence : YesDelete leading and trailing silent blocks : NoNull samples used in CRC calculations : YesUsed interface : Native Win32 interface for Win NT & 2000Gap handling : Appended to previous track

Used output format : User Defined EncoderSelected bitrate : 512 kBit/sQuality : HighAdd ID3 tag : NoCommand line compressor : C:\Program Files (x86)\Exact Audio Copy\Flac\flac.exeAdditional command line options : -V -8 -T "artist=%a" -T "title=%t" -T "album=%g" -T "date=%y" -T "tracknumber=%n" -T "genre=%m" %s

TOC of the extracted CD

Track | Start | Length | Start sector | End sector --------------------------------------------------------- 1 | 0:00.32 | 20:37.58 | 32 | 92864 2 | 20:38.15 | 3:34.35 | 92865 | 108949 3 | 24:12.50 | 3:19.40 | 108950 | 123914 4 | 27:32.15 | 3:52.55 | 123915 | 141369 5 | 31:24.70 | 3:34.37 | 141370 | 157456 6 | 34:59.32 | 3:59.10 | 157457 | 175391

Track 1

Filename E:\EAC Rips\Rush - 1976 - 2112\01 - 2112 I. Overture II. The Temples of Syrinx III. Discovery IV. Presentation V. Oracle- The Dream VI. Soliloquy VII. Grand Finale.wav

Pre-gap length 0:00:02.42

Peak level 100.0 % Track quality 100.0 % Test CRC 4CEBBF85 Copy CRC 4CEBBF85 Cannot be verified as accurate (confidence 4) [1BC33966], AccurateRip returned [733D5110] Copy OK

Track 2

Filename E:\EAC Rips\Rush - 1976 - 2112\02 - A Passage To Bangkok.wav

Pre-gap length 0:00:03.57

Peak level 100.0 % Track quality 100.0 % Test CRC 7778D714 Copy CRC 7778D714 Cannot be verified as accurate (confidence 4) [D394DBFE], AccurateRip returned [951421F4] Copy OK

Track 3

Filename E:\EAC Rips\Rush - 1976 - 2112\03 - The Twilight Zone.wav

Pre-gap length 0:00:00.13

Peak level 75.5 % Track quality 100.0 % Test CRC BAE033E2 Copy CRC BAE033E2 Cannot be verified as accurate (confidence 4) [03E05F5D], AccurateRip returned [B01C7185] Copy OK

Track 4

Filename E:\EAC Rips\Rush - 1976 - 2112\04 - Lessons.wav

Pre-gap length 0:00:02.24

Peak level 86.4 % Track quality 100.0 % Test CRC CC380B9B Copy CRC CC380B9B Cannot be verified as accurate (confidence 4) [9F537691], AccurateRip returned [57CF8ADE] Copy OK

Track 5

Filename E:\EAC Rips\Rush - 1976 - 2112\05 - Tears.wav

Pre-gap length 0:00:01.13

Peak level 54.7 % Track quality 99.9 % Test CRC 827A9579 Copy CRC 827A9579 Cannot be verified as accurate (confidence 4) [9B7F3593], AccurateRip returned [43D31446] Copy OK

Track 6

Filename E:\EAC Rips\Rush - 1976 - 2112\06 - Something For Nothing.wav

Pre-gap length 0:00:02.69

Peak level 69.4 % Track quality 100.0 % Test CRC 15B6B8C8 Copy CRC 15B6B8C8 Cannot be verified as accurate (confidence 3) [5D73D5F9], AccurateRip returned [BB7E3C84] Copy OK

No tracks could be verified as accurateYou may have a different pressing from the one(s) in the database

No errors occurred

End of status report
REM GENRE RockREM DATE 1976REM DISCID 42092206REM COMMENT "ExactAudioCopy v0.99pb5"PERFORMER "Rush"TITLE "2112"FILE "Rush - 1976 - 2112\01 - 2112 I. Overture II. The Temples of Syrinx III. Discovery IV. Presentation V. Oracle- The Dream VI. Soliloquy VII. Grand Finale.wav" WAVE TRACK 01 AUDIO TITLE "2112 I. Overture II. The Temples of Syrinx III. Discovery IV. Presentation V...." PERFORMER "Rush" PREGAP 00:00:32 INDEX 01 00:00:00 INDEX 02 04:32:61 INDEX 03 06:46:38 INDEX 04 10:15:63 INDEX 05 13:57:65 INDEX 06 15:58:11 INDEX 07 18:19:28 TRACK 02 AUDIO TITLE "A Passage To Bangkok" PERFORMER "Rush" INDEX 00 20:34:15FILE "Rush - 1976 - 2112\02 - A Passage To Bangkok.wav" WAVE INDEX 01 00:00:00 TRACK 03 AUDIO TITLE "The Twilight Zone" PERFORMER "Rush" INDEX 00 03:34:25FILE "Rush - 1976 - 2112\03 - The Twilight Zone.wav" WAVE INDEX 01 00:00:00 TRACK 04 AUDIO TITLE "Lessons" PERFORMER "Rush" INDEX 00 03:17:22FILE "Rush - 1976 - 2112\04 - Lessons.wav" WAVE INDEX 01 00:00:00 TRACK 05 AUDIO TITLE "Tears" PERFORMER "Rush" INDEX 00 03:51:45FILE "Rush - 1976 - 2112\05 - Tears.wav" WAVE INDEX 01 00:00:00 TRACK 06 AUDIO TITLE "Something For Nothing" PERFORMER "Rush" INDEX 00 03:31:60FILE "Rush - 1976 - 2112\06 - Something For Nothing.wav" WAVE INDEX 01 00:00:00


Трекер:  [ 05-Янв-2013 17:08 ]

  

Скачать .torrent

Размер .torrent файла 18 KB


Размер: 223 MB
Хэш (hash) релиза: 0252232fc6521fff58cf26e8f526cb6ba63a6e0e

Еще никто не оставлял запись к записи скачать торрент Rush - 2112 - 1987, FLAC . Будь первым!

!Обратная связь