Скачать через торрент музыку Mammoth - XXXL - 1997 бесплатно без регистрации torrent

Если у вас наблюдаются проблемы со скриншотами, переходом по ссылками, скачиванием торрентов - проблемы в блокировщике рекламы AdBlock. #хорошегоДня!


Статистика раздачи
Размер:  300 MB   |    Зарегистрирован:  4 года 7 месяцев   |    .torrent скачан:  29 раз   |   
Раздают:  1  
   
Загрузка...
 
Автор Сообщение

L


Mammoth - XXXL


Жанр: Hard Rock
Страна-производитель диска: Russia
Год издания: 1997
Издатель (лейбл): CD-Maximum
Номер по каталогу: CDM-0701-623
Страна: UK
Аудиокодек: APE (*.ape)
Тип рипа: image+.cue
Битрейт аудио: lossless
Продолжительность: 00:43:10
Источник (релизер): internet
Наличие сканов в содержимом раздачи: да



01. White Mammoth On The M1 [00:02:38]
02. Fatman [00:04:09]
03. Dressed To Kill [00:03:02]
04. All The Days [00:03:27]
05. Can't Take The Hurt [00:03:46]
06. Always And Forever [00:03:17]
07. Do What You Want To [00:05:49]
08. Working For The Man [00:03:40]
09. Catcher In The Rye [00:04:00]
10. Hope You Find It [00:03:50]
11. Monster Mania [00:05:15]

Exact Audio Copy V1.0 beta 2 from 29. April 2011

Отчёт EAC об извлечении, выполненном 14. апреля 2012, 17:49

Mammoth / XXXL

Дисковод: _NEC DV-5800C Adapter: 3 ID: 1

Режим чтения : ДостоверностьИспользование точного потока : ДаОтключение кэша аудио : ДаИспользование указателей C2 : Нет

Коррекция смещения при чтении : 12Способность читать области Lead-in и Lead-out : НетЗаполнение пропущенных сэмплов тишиной : ДаУдаление блоков с тишиной в начале и конце : НетПри вычислениях CRC использовались нулевые сэмплы : НетИнтерфейс : Встроенный Win32-интерфейс для Win NT/2000

Выходной формат : Внутренние WAV-операцииФормат сэмплов : 44.100 Гц; 16 бит; стерео

TOC извлечённого CD

Трек | Старт | Длительность | Начальный сектор | Конечный сектор --------------------------------------------------------------------- 1 | 0:00.00 | 2:38.47 | 0 | 11896 2 | 2:38.47 | 4:10.38 | 11897 | 30684 3 | 6:49.10 | 3:03.72 | 30685 | 44481 4 | 9:53.07 | 3:28.50 | 44482 | 60131 5 | 13:21.57 | 3:48.28 | 60132 | 77259 6 | 17:10.10 | 3:18.07 | 77260 | 92116 7 | 20:28.17 | 5:50.60 | 92117 | 118426 8 | 26:19.02 | 3:41.60 | 118427 | 135061 9 | 30:00.62 | 4:01.08 | 135062 | 153144 10 | 34:01.70 | 3:51.62 | 153145 | 170531 11 | 37:53.57 | 5:16.58 | 170532 | 194289

Характеристики диапазона извлечения и сообщения об ошибках

Выбранный диапазон

Имя файла D:\Mammoth - XXXL.wav

Пиковый уровень 98.9 % Скорость извлечения 8.1 X Качество диапазона 100.0 % CRC копии 581A2FBB Копирование... OK

Ошибок не произошло

AccurateRip: сводка

Трек 1 отсутствует в базе данныхТрек 2 отсутствует в базе данныхТрек 3 отсутствует в базе данныхТрек 4 отсутствует в базе данныхТрек 5 отсутствует в базе данныхТрек 6 отсутствует в базе данныхТрек 7 отсутствует в базе данныхТрек 8 отсутствует в базе данныхТрек 9 отсутствует в базе данныхТрек 10 отсутствует в базе данныхТрек 11 отсутствует в базе данных

Ни одного трека нет в базе AccurateRip

Конец отчёта
REM GENRE "Hard Rock"REM DATE 1997REM DISCID 6C0A1E0BREM COMMENT "ExactAudioCopy v1.0b2"PERFORMER "Mammoth"TITLE "XXXL"FILE "Mammoth - XXXL.wav" WAVE TRACK 01 AUDIO TITLE "White Mammoth On The M1" PERFORMER "Mammoth" INDEX 01 00:00:00 TRACK 02 AUDIO TITLE "Fatman" PERFORMER "Mammoth" INDEX 01 02:38:47 TRACK 03 AUDIO TITLE "Dressed To Kill" PERFORMER "Mammoth" INDEX 00 06:47:52 INDEX 01 06:49:10 TRACK 04 AUDIO TITLE "All The Days" PERFORMER "Mammoth" INDEX 00 09:51:65 INDEX 01 09:53:07 TRACK 05 AUDIO TITLE "Can't Take The Hurt" PERFORMER "Mammoth" INDEX 00 13:20:50 INDEX 01 13:21:57 TRACK 06 AUDIO TITLE "Always And Forever" PERFORMER "Mammoth" INDEX 00 17:08:25 INDEX 01 17:10:10 TRACK 07 AUDIO TITLE "Do What You Want To" PERFORMER "Mammoth" INDEX 00 20:27:60 INDEX 01 20:28:17 TRACK 08 AUDIO TITLE "Working For The Man" PERFORMER "Mammoth" INDEX 00 26:17:65 INDEX 01 26:19:02 TRACK 09 AUDIO TITLE "Catcher In The Rye" PERFORMER "Mammoth" INDEX 00 29:59:20 INDEX 01 30:00:62 TRACK 10 AUDIO TITLE "Hope You Find It" PERFORMER "Mammoth" INDEX 00 34:01:35 INDEX 01 34:01:70 TRACK 11 AUDIO TITLE "Monster Mania" PERFORMER "Mammoth" INDEX 00 37:52:37 INDEX 01 37:53:57
-----------------------

DON'T MODIFY THIS FILE

-----------------------

PERFORMER: auCDtect Task Manager, ver. 1.5.1RC6 build 1.5.1.7Copyright (c) 2008-2010 y-soft. All rights reservedhttp://y-soft.org

ANALYZER: auCDtect: CD records authenticity detector, version 0.8.2Copyright (c) 2004 Oleg Berngardt. All rights reserved.Copyright (c) 2004 Alexander Djourik. All rights reserved.

FILE: Mammoth - XXXL.ape Size: 311082452 Hash: 856AB4816CA8D9193DDFF0BA50B21106 Accuracy: -m0 Conclusion: CDDA 100% Signature: 0C8BC63375A54C1984D9504A42685BE152C418A5
MAMMOTH were a truly larger than life rock outfit led by the man mountain singer NICKY MOORE and big bald bearded bassist JOHN McCOY famed for his former years in chart topping Gillan. The band lasted from late 1986 to the end of 1989 yet they released only one album until now that is as John McCoy has delved into his Mammoth tape vaults. These unreleased tracks show what a band, music and all the then hype were all about. This band demanded not to be forgotten, despite their premature extinction. Play loud and enjoy. Musicians: John McCoy, Nicky Moore, Vinnie Reed and Kenny Cox.
[b]John McCoy - bass, keyboards, guitars
Tubby Vinnie Reed - drums
Nicky Moore - lead and backing vocals
Kenny Cox - guitar (2,3,4,5)
Big Mac Baker - guitar (7,8,9,10,11)
Mr. Pincott - guitar (7,8,9,10,11)
Bernie Torme - guitar (6)
Kuljit Bramah - tabla (9)


Трекер:  [ 05-Янв-2013 17:08 ]

  

Скачать .torrent

Размер .torrent файла 12 KB


Размер: 300 MB
Хэш (hash) релиза: 31711d91e50780ef1432ad3593c77a8207d84374

Торренты, похожие на Mammoth - XXXL - 1997 скачать торрент

Форум Название Автор Размер S L Добавлен
Зарубежный Rock ·· (Hard Rock) Mammoth - XXXL - 1997, MP3, 320 kbps Galfimbul 129541233124 MB 0 0 1346775480

19:18

4-Сен-12

Еще никто не оставлял запись к записи скачать торрент Mammoth - XXXL - 1997 . Будь первым!

!Обратная связь