Скачать через торрент Хеллсинг Hellsing Ultimate бесплатно Аниме Все серии на русском torrent

Если у вас наблюдаются проблемы со скриншотами, переходом по ссылками, скачиванием торрентов - проблемы в блокировщике рекламы AdBlock. #хорошегоДня!


Статистика раздачи
Размер:  1.12 GB   |    Зарегистрирован:  4 года 8 месяцев   |    .torrent скачан:  197 раз   |   
Раздают:  1  
   
Загрузка...
 
Автор Сообщение

Galfimbul

avatar Galfimbul


Хеллсинг / Hellsing Ultimate

Страна: Япония
Год выпуска: 2012 г.
Жанр: приключения, ужасы, вампиры, мистика
Тип: OVA
Продолжительность: 01:07:45
Режиссер: Токоро Томокадзу
Студия: Graphinica

Описание: На каждое действие найдётся противодействие – для борьбы с кровожадной нечистью в Великобритании был создан Королевский Орден Протестантских Рыцарей, которому служит древнейший вампир Алукард. Согласно заключённому договору, он подчиняется главе тайной организации «Хеллсинг».

У Ватикана свой козырь – особый Тринадцатый Отдел, организация «Искариот», в составе которой неубиваемый отец Александр. Для них Алукард ничем не отличается от остальных монстров.

Однако всем им придётся на время забыть о дрязгах между католической и англиканской церквями, когда на сцену выйдет могущественный враг из прошлого – загадочный Майор во главе секретной нацистской организации «Миллениум».

Но пока не началась битва за Англию, Алукард занят воспитанием новообращённой вампирши: Виктория Серас раньше служила в полиции, а теперь ей приходится привыкать к жизни в старинном особняке, к своим новым способностям и новым обязанностям. Даже хозяйка Алукарда, леди Интегра, не знает, зачем он обратил эту упрямую девушку...

Вторая экранизация манги Хирано Кота дотошно следует оригиналу, и потому заметно отличается от сериала, ведь именно чёрный юмор, реки крови, харизматичные враги и закрученный конфликт сделали «Хеллсинга» всемирно популярным.© Расселл Д. Джонс, World ArtКачество: BDRip
Тип релиза: Без хардсаба
Формат видео: MP4
Наличие линковки: Нет
Видео: x264, 1920x1080 (16:9), 2174 Kbps, 23.976 fps
Аудио JAP: AAC, 192 Kbps, 2 channels, 48.0 KHz
Субтитры RUS: SRT, внешние от widerspuffle, DuKaT aka Pl@zma
Субтитры ENG: SRT, внешние
GeneralComplete name : HELLSING X (BD 1920x1080 x264 AAC).mp4Format : MPEG-4Format profile : Base Media / Version 2Codec ID : mp42File size : 1.12 GiBDuration : 1h 7mnOverall bit rate mode : VariableOverall bit rate : 2 369 KbpsWriting application : TMPGEnc Video Mastering Works 5 Version. 5.1.0.46

VideoID : 2Format : AVCFormat/Info : Advanced Video CodecFormat profile : <a href="mailto:High@L4.0Format" class="postLink">High@L4.0Format</a> settings, CABAC : YesFormat settings, ReFrames : 4 framesCodec ID : avc1Codec ID/Info : Advanced Video CodingDuration : 1h 7mnBit rate mode : VariableBit rate : 2 174 KbpsMaximum bit rate : 4 800 KbpsWidth : 1 920 pixelsHeight : 1 080 pixelsDisplay aspect ratio : 16:9Frame rate mode : ConstantFrame rate : 23.976 fpsStandard : NTSCColor space : YUVChroma subsampling : 4:2:0Bit depth : 8 bitsScan type : ProgressiveBits/(Pixel*Frame) : 0.044Stream size : 1.03 GiB (92%)Writing library : x264 core 115Encoding settings : cabac=1 / ref=4 / deblock=1:1:1 / analyse=0x3:0x113 / me=umh / subme=8 / psy=1 / psy_rd=0.40:0.00 / mixed_ref=1 / me_range=16 / chroma_me=1 / trellis=1 / 8x8dct=1 / cqm=2 / deadzone=21,11 / fast_pskip=1 / chroma_qp_offset=-2 / threads=12 / sliced_threads=0 / slices=1 / nr=0 / decimate=1 / interlaced=0 / bluray_compat=0 / constrained_intra=0 / bframes=3 / b_pyramid=0 / b_adapt=2 / b_bias=0 / direct=3 / weightb=1 / open_gop=0 / weightp=2 / keyint=300 / keyint_min=23 / scenecut=40 / intra_refresh=0 / rc_lookahead=50 / rc=crf / mbtree=1 / crf=22.0 / qcomp=0.60 / qpmin=3 / qpmax=51 / qpstep=4 / vbv_maxrate=4800 / vbv_bufsize=4784 / crf_max=51.0 / nal_hrd=vbr / ip_ratio=1.40 / aq=1:0.60Color primaries : BT.709Transfer characteristics : BT.709Matrix coefficients : BT.709

AudioID : 1Format : AACFormat/Info : Advanced Audio CodecFormat profile : LCCodec ID : 40Duration : 1h 7mnBit rate mode : VariableBit rate : 192 KbpsMaximum bit rate : 576 KbpsChannel(s) : 2 channelsChannel positions : Front: L RSampling rate : 48.0 KHzCompression mode : LossyDelay relative to video : 42msStream size : 93.0 MiB (8%)


Трекер:  [ 05-Янв-2013 11:17 ]

  

Скачать .torrent

Размер .torrent файла 12 KB


Размер: 1.12 GB
Хэш (hash) релиза: 6ccd2d808334f700404382088edb153661fd9cde
Подписка на обновления:

Торренты, похожие на Хеллсинг Hellsing Ultimate скачать торрент

Форум Название Автор Размер S L Добавлен
Аниме | HD Rips ·· Хеллсинг / Hellsing Ultimate (Токоро Томокадзу) [OVA] [10 из 10] [без хардсаба] [RUS(ext),JAP+SUB] [2006 г., приключения, мистика, драма, BDRip] [1080p] Galfimbul 5625204083052.39 GB 0 0 1464369489

20:18

27-Май-16

Аниме | HD Rips ·· Хеллсинг / Hellsing Ultimate [OVA] [10 из 10] [Без хардсаба] [RUS(int), JAP+SUB] [2006 г., приключения, мистика, драма, BDRemux] [1080p] Galfimbul 112615716924104.88 GB 0 0 1410868894

15:01

16-Сен-14

Аниме | HD Rips ·· Хеллсинг / Hellsing Ultimate (Токоро Томокадзу) [OVA] [1-10 из 10] [без хардсаба] [RUS(ext),JAP+SUB] [2006 г., приключения, мистика, драма, BDRip] [1080p] _N_ 3476489395432.38 GB 0 0 1388926638

15:57

5-Янв-14

Аниме | HD Rips ·· Хеллсинг / Hellsing Ultimate (Токоро Томокадзу) [OVA] [1-10 из 10] [без хардсаба] [RUS(ext),JAP+SUB] [2006 г., приключения, мистика, драма, BDRip] [1080p] Galfimbul 4024497015537.48 GB 0 0 1362732110

11:41

8-Мар-13

Аниме | Rips ·· Хеллсинг / Hellsing Ultimate [OVA] [8 из10] [RUS(int), JAP] [2011 г., Приключения/мистика/вампиры, DVDRip, Любительская] LostSmokeMan 539099136514 MB 0 0 1312557936

18:25

5-Авг-11

Аниме | DVD ·· Хеллсинг Ultimate / Hellsing Ultimate [1-4 из 7][Rus,JAP+SUB][2006][приключения, мистика, вампиры][2xDVD9][Профессиональная] Galfimbul 1428036403213.3 GB 0 0 1317475245

16:20

1-Окт-11

Аниме | HD Rips ·· Хеллсинг (ОВА) / Hellsing Ultimate (Токоро Томокадзу) [OVA] [10 из 10] [без хардсаба] [RUS(ext), JAP+SUB] [2006 г., приключения, мистика, драма, BDRip] [720p] Galfimbul 2094827931519.51 GB 0 0 1458746053

18:14

23-Мар-16

Аниме | HD Rips ·· Хеллсинг ОВА / Hellsing Ultimate (Токоро Томокадзу) [OVA] [07 из 10] [Без хардсаба] [RUS(int), JAP, SUB] [2006-2012 гг., приключения, мистика, ужасы, вампиры, драма, BDRip] [720p] Polarnik 1235160772811.5 GB 0 0 1380747181

23:53

2-Окт-13

Аниме | DVD ·· Хеллсинг Ультимате ОВА 03 / Hellsing Ultimate OVA 03 (Kohta Hirano) [Jap, SUB] [2007 г., приключения, мистерия, ужасы, вампиры, DVD5] Polarnik 27378810882.55 GB 0 0 1369730737

11:45

28-Май-13

Аниме | Rips ·· Хеллсинг: обзор для помешанных / Hellsing Ultimate: Digest for Freaks [Special] [[1 из 1] [Хардсаб] [JAP+SUB] [2006 г., приключения, мистика, ужасы, вампиры, TVRip] Polarnik 430172698410 MB 0 0 1349271660

16:41

3-Окт-12

Аниме | HD Rips ·· Хеллсинг OVA / Hellsing Ultimate OVA [OVA] [1-8 из 10] [RUS(ext), JAP + Sub] [2011 г., приключения, мистерия, ужасы, вампиры, BDRip] [720p][любительская][профессиональная] L 1437994458313.39 GB 0 0 1315077385

22:16

3-Сен-11

Аниме | DVD ·· Хеллсинг Ультимате ОВА / Hellsing Ultimate OVA [JAP+SUB][1994 г., приключения, [2006 г., приключения, мистерия, ужасы, вампиры, DVD5] Galfimbul 67894190086.32 GB 0 0 1310319123

20:32

10-Июл-11

Аниме | HD Rips ·· Хеллсинг OVA / Hellsing Ultimate OVA [OVA] [1-5 из >7] [RUS(ext),JAP+SUB] [2010 г., приключения, мистерия, ужасы, вампиры, BDRip] [1080p] [Любительская] Galfimbul 1522620725814.18 GB 0 0 1303751822

20:17

25-Апр-11

Аниме | Rips ·· Хеллсинг OVA / Hellsing Ultimate OVA [OVA][1-7 из 10][RUS(int),JAP+SUB][2006 г., приключения, мистика, драма, DVDRip-AVC][Профессиональная] Polarnik 44751949244.17 GB 0 0 1290021157

22:12

17-Ноя-10

Аниме | HD Rips ·· Хеллсинг OVA / Hellsing Ultimate OVA [OVA] [7 из 7] [RUS(ext), JAP+SUB] [2009 г.] [Приключения, мистика, драма] [BDRip 1080p] [Любительская] Bot 17284816771.61 GB 0 0 1286481182

22:53

7-Окт-10

Аниме | HD Rips ·· Хеллсинг OVA / Hellsing Ultimate OVA [OVA][6 из 6][RUS,JAP+SUB][2009 г., приключения, мистика, драма, BDRip][720p][Любительская] Bot 16322458621.52 GB 0 0 1286480941

22:49

7-Окт-10

Аниме | HD Rips ·· Хеллсинг OVA / Hellsing Ultimate OVA [OVA][6 из 6][JAP+SUB][2009 г., приключения, мистика, драма, BDRip [1080p][Субтитры] Bot 22157946542.06 GB 0 0 1286480857

22:47

7-Окт-10

Аниме | Blu-Ray и BDRemux ·· Хеллсинг OVA 6 / Hellsing Ultimate OVA VI [OVA] [6 из X] [RUS(int),JAP+SUB] [2009 г., вампиры, ужасы, триллер, BDRemux] [1080p] [Любительская] Bot 1389475241512.94 GB 0 0 1286480659

22:44

7-Окт-10

Еще никто не оставлял запись к записи скачать торрент Хеллсинг Hellsing Ultimate . Будь первым!

!Обратная связь