Скачать через торрент музыку Lombard бесплатно без регистрации torrent

Если у вас наблюдаются проблемы со скриншотами, переходом по ссылками, скачиванием торрентов - проблемы в блокировщике рекламы AdBlock. #хорошегоДня!


Статистика раздачи
Размер:  2.26 GB   |    Зарегистрирован:  4 года 10 месяцев   |    .torrent скачан:  21 раз   |   
Раздают:  1  
   
Загрузка...
 
Автор Сообщение

Galfimbul

avatar Galfimbul


Lombard - 6 альбомов - 1983 - 1994
Жанр: Pop-Rock
Год выпуска диска: 1983
Производитель диска: Poland
Аудио кодек: FLAC, APE
Тип рипа: image+.cue
Битрейт аудио: lossless
Продолжительность: 4h 56m 02 sek
Трэклист:
Треклист
01. "Śmierć dyskotece!" (Jacek Skubikowski – Marek Dutkiewicz) – 2:51****
02. "Na skróty do piekła" (Jacek Skubikowski – Marek Dutkiewicz) – 3:08
03. "Droga Pani z TV" (Jacek Skubikowski – Jacek Skubikowski) – 3:08****
04. "Rdza" (Grzegorz Stróżniak – Marek Dutkiewicz) – 4:05
05. "Ekspres stąd do nieba" (Piotr Zander – Andrzej Sobczak) – 3:04
06. "Taniec pingwina na szkle" (Jacek Skubikowski – Jacek Skubikowski) – 4:19****
07. "Diamentowa kula" (Grzegorz Stróżniak – Marek Dutkiewicz) – 4:27****
08. "Stary ból" (Jacek Skubikowski – Jacek Skubikowski) – 2:55
09. "O jeden dreszcz" (Jacek Skubikowski – Marek Dutkiewicz) – 3:04****
10. "Mniej niż nic" (Grzegorz Stróżniak – Jacek Skubikowski) – 3:16
11. "Koszmarna kołysanka" (Piotr Put – Leszek Pietrowiak) – 3:13
12. "Gwiazdy rock and rolla" (Grzegorz Stróżniak – Marek Dutkiewicz) – 3:39****
Bonusy
13. "Bez zysków, bez strat" (Jacek Skubikowski – Jacek Skubikowski) – 4:00
14. "Błądząc, wędrując" (Jeremi Sajkowski – Małgorzata Ostrowska) – 4:05
15. "Dworzec pełen snów" (Jacek Skubikowski – Jacek Skubikowski) – 4:35
16. "Wielki grzech" (Piotr Zander – Małgorzata Ostrowska) – 3:16
17. "Przeżyj to sam" (Grzegorz Stróżniak – Andrzej Sobczak) – 5:05****
Состав:
Piotr Chyliński - drums;
Wanda Kwietniewska - vocal;
Małgorzata Ostrowska - vocal;
Maurycy Przybyłowicz - bass guitar;
Grzegorz Stróżniak - vocal, synthesizer;
Piotr Zander - guitar
Plik sprawozdania ze zgrywania programem EAC z 17. Maja 2005, 8:13 dla płyty
Lombard / Live

Użyty napęd: _NEC DVD_RW ND-3520A Adapter: 1 ID: 2
Tryb odczytu: Pewny BEZ C2, z dokładnym strumieniem, wyłączone buforowanie
Korekta położenia dla odczytu: 0
Nadczytywanie w obszarach LeadIn i LeadOut : Nie

Użyty format wyjściowy: Monkey's Audio Lossless Encoder v3.99 DLL
Fast Lossless Compression

Inne opcje:
Dopełnienie ciszą brakujących przesuniętych próbek : Tak
Usuwanie początkowych i końcowych bloków ciszy : Nie
Wewnętrzny interfejs Win32 dla Windows NT i 2000

Stan i błędy zakresu
Wybrany zakres
Ścieżka pliku D:\Pompito1\Lombard - Live\CDImage.ape

Poziom wysterowania 90.7 %
Jakość zakresu 99.9 %
Suma kontrolna 5941E2F7
Kopia bezbłędna

Nie było błędów

Koniec raportu
Треклист

01. "Nasz ostatni taniec" (Grzegorz Stróżniak – Leszek Pietrowiak) – 4:50****
02. "Znowu radio" (Piotr Zander – Małgorzata Ostrowska) – 3:55
03. "Bye, bye Jimi" (Grzegorz Stróżniak – Marek Dutkiewicz) – 9:10****
04. "Słowa chore od słów" (Grzegorz Stróżniak – Małgorzata Ostrowska) – 5:45
05."Spóźniona radość" (Grzegorz Stróżniak – Jacek Skubikowski) – 5:40
06. "Przeżyj to sam" (Grzegorz Stróżniak – Andrzej Sobczak) – 7:35
Bonusy CD
07. "Diamentowa kula" (Grzegorz Stróżniak – Marek Dutkiewicz) – 4:30****
08. "Taniec pingwina na szkle" (Jacek Skubikowski – Jacek Skubikowski) – 4:30****
09. "Nowy Tytan" (Piotr Zander – Andrzej Sobczak) – 4:55
10. "Czekanie na pożar" (Piotr Zander – Małgorzata Ostrowska) – 3:25
11. "Śmierć dyskotece!" (Grzegorz Stróżniak – Marek Dutkiewicz) – 2:50
Состав:
Foryś, Zbigniew - bass guitar;
Ostrowska, Małgorzata - vocal;
Pahl, Przemysław - drums;
Stróżniak, Grzegorz - keyboards, vocal;
Zander, Piotr - gitara
Plik sprawozdania ze zgrywania programem EAC z 17. Maja 2005, 8:13 dla pіyty
Lombard / Live

Uїyty napкd: _NEC DVD_RW ND-3520A Adapter: 1 ID: 2
Tryb odczytu: Pewny BEZ C2, z dokіadnym strumieniem, wyі№czone buforowanie
Korekta poіoїenia dla odczytu: 0
Nadczytywanie w obszarach LeadIn i LeadOut : Nie

Uїyty format wyjњciowy: Monkey's Audio Lossless Encoder v3.99 DLL
Fast Lossless Compression

Inne opcje:
Dopeіnienie cisz№ brakuj№cych przesuniкtych prуbek : Tak
Usuwanie pocz№tkowych i koсcowych blokуw ciszy : Nie
Wewnкtrzny interfejs Win32 dla Windows NT i 2000

Stan i bікdy zakresu
Wybrany zakres
Њcieїka pliku D:\Pompito1\Lombard - Live\CDImage.ape

Poziom wysterowania 90.7 %
Jakoњж zakresu 99.9 %
Suma kontrolna 5941E2F7
Kopia bezbікdna

Nie byіo bікdуw

Koniec raportu
Треклист
1. Stan gotowości" (Grzegorz Stróżniak – Jacek Skubikowski) – 4:55
2. "Plaża fok" (Zbigniew Foryś – Jacek Skubikowski) – 4:45
3. "Bezcieleśni - bezszelestni" (Grzegorz Stróżniak – Jacek Skubikowski) – 5:00
4. "Darwiniści" (Piotr Zander – Jacek Skubikowski) – 3:10
5. "Wąwóz Kolorado" (Grzegorz Stróżniak – Jacek Skubikowski) – 6:25
6. "Czeski film" (Grzegorz Stróżniak – Jacek Skubikowski) – 4:00
7. "Szara maść" (Grzegorz Stróżniak – Jacek Skubikowski) – 4:40
8. "EKG" (Grzegorz Stróżniak) – 4:50
Bonus (Spin 1992)
10. "Ocalić serca" (Grzegorz Stróżniak – Małgorzata Ostrowska) – 4:25
11. "Gino" (Piotr Zander – Małgorzata Ostrowska) – 3:32
12. "Odejść bez pożegnań" (Grzegorz Stróżniak – Małgorzata Ostrowska) – 3:44
13. "List nocą" (Grzegorz Stróżniak – Małgorzata Ostrowska) – 3:53
14. "To tylko moment" (Henryk Baran – Małgorzata Ostrowska) – 4:42
Exact Audio Copy V0.99 prebeta 5 from 4. May 2009

Отчёт EAC об извлечении, выполненном 28. июля 2009, 15:46

LOMBARD / SZARA MASC

Дисковод: HL-DT-STDVDRAM GSA-4082N Adapter: 0 ID: 0

Режим чтения : Достоверность
Использование точного потока : Да
Отключение кэша аудио : Да
Использование указателей C2 : Нет

Коррекция смещения при чтении : 667
Способность читать области Lead-in и Lead-out : Нет
Заполнение пропущенных сэмплов тишиной : Да
Удаление блоков с тишиной в начале и конце : Нет
При вычислениях CRC использовались нулевые сэмплы : Да
Интерфейс : Установленный внешний ASPI-интерфейс

Выходной формат : Внутренние WAV-операции
Формат сэмплов : 44.100 Гц; 16 бит; стерео

TOC извлечённого CD

Трек | Старт | Длительность | Начальный сектор | Конечный сектор
---------------------------------------------------------------------
1 | 0:00.33 | 4:55.47 | 33 | 22204
2 | 4:56.05 | 4:56.70 | 22205 | 44474
3 | 9:53.00 | 5:01.23 | 44475 | 67072
4 | 14:54.23 | 3:18.12 | 67073 | 81934
5 | 18:12.35 | 6:21.60 | 81935 | 110569
6 | 24:34.20 | 4:05.28 | 110570 | 128972
7 | 28:39.48 | 4:42.17 | 128973 | 150139
8 | 33:21.65 | 4:52.33 | 150140 | 172072
9 | 38:14.23 | 4:25.32 | 172073 | 191979
10 | 42:39.55 | 3:32.18 | 191980 | 207897
11 | 46:11.73 | 3:44.70 | 207898 | 224767
12 | 49:56.68 | 3:53.27 | 224768 | 242269
13 | 53:50.20 | 4:41.60 | 242270 | 263404

Характеристики диапазона извлечения и сообщения об ошибках

Выбранный диапазон

Имя файла C:\999\LOMBARD - SZARA MASC.wav

Пиковый уровень 100.0 %
Качество диапазона 99.9 %
CRC копии C8EA8B3C
Копирование... OK

Ошибок не произошло

AccurateRip: сводка

Трек 1 нет в базе данных
Трек 2 нет в базе данных
Трек 3 нет в базе данных
Трек 4 нет в базе данных
Трек 5 нет в базе данных
Трек 6 нет в базе данных
Трек 7 нет в базе данных
Трек 8 нет в базе данных
Трек 9 нет в базе данных
Трек 10 нет в базе данных
Трек 11 нет в базе данных
Трек 12 нет в базе данных
Трек 13 нет в базе данных

Ни одного трека нет в базе AccurateRip

Конец отчёта
Треклист
1. "Anatomia – ja płynę, płynę" (Grzegorz Stróżniak – Małgorzata Ostrowska) – 3:50
2. "Ckliwy melodramat" (Grzegorz Stróżniak – Małgorzata Ostrowska) – 4:45
3. "Gołębi puch" (Grzegorz Stróżniak – Małgorzata Ostrowska) – 4:20
4. "Mam dość" (Grzegorz Stróżniak – Małgorzata Ostrowska) – 3:35
5. "Wstęga Möbiusa" (Grzegorz Stróżniak – Małgorzata Ostrowska) – 4:05
6. "Kryształowa" (Grzegorz Stróżniak – Jacek Skubikowski) – 3:20
7. "5 lipca" (Grzegorz Stróżniak – Jacek Skubikowski) – 3:40
8. "Anka" (Grzegorz Stróżniak – Jacek Skubikowski) – 4:35
9. "Zaklęty sejf" (Grzegorz Stróżniak – Jacek Skubikowski) – 3:25
10. "Spal go" (Grzegorz Stróżniak – Jacek Skubikowski) – 3:25
Bonus (Koch International 2000)
11. * "Nasz ostatni taniec" (Grzegorz Stróżniak – Leszek Pietrowiak) – 4:20
12. * "Kto mi zapłaci za łzy" (Grzegorz Stróżniak – Jacek Skubikowski) – 4:05
13. * "Płonąca stodoła" (Czesław Niemen – Zbigniew Adrjański i Zbigniew Kaszkur jako "Marta Bellan") – 2:45
AUDIOCHECKER v2.0 beta (build 457) - by Dester - <a href="mailto:opdester@freemail.hu" class="postLink">opdester@freemail.hu</a>
~~~~~~~~~~~~~~~~~~~~~~~~~~~~~~~~~~
-=== DO NOT EDIT THIS FILE! ===-

Path: ...\Lombard (1985) Anatomia

0001 -=- 01. Lombard - Anatomia - ja plyne, plyne.wav -=- CDDA (100%)
0002 -=- 02. Lombard - Ckliwy melodramat.wav -=- CDDA (100%)
0003 -=- 03. Lombard - Golebi puch.wav -=- CDDA (100%)
0004 -=- 04. Lombard - Mam dosc.wav -=- CDDA (100%)
0005 -=- 05. Lombard - Wstega Mobiusa.wav -=- CDDA (100%)
0006 -=- 06. Lombard - Krysztalowa.wav -=- CDDA (99%)
0007 -=- 07. Lombard - 5 lipca.wav -=- CDDA (100%)
0008 -=- 08. Lombard - Anka.wav -=- CDDA (100%)
0009 -=- 09. Lombard - Zaklety sejf.wav -=- CDDA (99%)
0010 -=- 10. Lombard - Spal go.wav -=- CDDA (100%)
0011 -=- 11. Lombard - Nasz ostatni taniec (bonus).wav -=- CDDA (99%)
0012 -=- 12. Lombard - Kto mi zaplaci za lzy (bonus).wav -=- CDDA (100%)
0013 -=- 13. Lombard - Plonaca stodola (bonus).wav -=- CDDA (100%)

Summary 99,77% CDDA

120822340
Треклист
1. "Śmierć dyskotece!" (Jacek Skubikowski – Marek Dutkiewicz) – 3:22
2. "Droga Pani z TV" (Jacek Skubikowski – Jacek Skubikowski) – 4:01
3. "O jeden dreszcz" (Jacek Skubikowski – Marek Dutkiewicz) – 2:18
4. "Przeżyj to sam" (Grzegorz Stróżniak – Andrzej Sobczak) – 5:03
5. "Dworzec pełen snów" (Jacek Skubikowski – Jacek Skubikowski) – 3:49
6. "Nasz ostatni taniec" (Grzegorz Stróżniak – Leszek Pietrowiak) – 4:20
7. "Taniec pingwina na szkle" (Jacek Skubikowski – Jacek Skubikowski) – 5:11
8. "Znowu radio" (Piotr Zander – Małgorzata Ostrowska) – 4:03
9. "Gwiazdy rock and rolla" (Grzegorz Stróżniak – Marek Dutkiewicz) – 3:05
10. "Szklana pogoda" (Grzegorz Stróżniak – Marek Dutkiewicz) – 3:21
11. "Kto mi zapłaci za łzy" (Grzegorz Stróżniak – Jacek Skubikowski) – 5:04
12. "Adriatyk, ocean gorący" (Grzegorz Stróżniak – Małgorzata Ostrowska) – 6:41
13. "Aku-Hara kraj ze snu" (Grzegorz Stróżniak – Małgorzata Ostrowska) – 3:37
14. "Stan gotowości" (Grzegorz Stróżniak – Jacek Skubikowski) – 4:55
15. "Mam dość" (Grzegorz Stróżniak – Małgorzata Ostrowska) – 4:06
16. "Kryształowa" (Grzegorz Stróżniak – Jacek Skubikowski) – 3:55
17. "Gołębi puch" (Grzegorz Stróżniak – Małgorzata Ostrowska) – 4:25
18. "Welcome Home, Bóg w dom" (Henryk Baran – Małgorzata Ostrowska) – 2:26
Exact Audio Copy V0.99 prebeta 5 from 4. May 2009

Отчёт EAC об извлечении, выполненном 28. июля 2009, 12:31

Lombard / Najwieksze Przeboje '81-'91

Дисковод: HL-DT-STDVDRAM GSA-4082N Adapter: 0 ID: 0

Режим чтения : Достоверность
Использование точного потока : Да
Отключение кэша аудио : Да
Использование указателей C2 : Нет

Коррекция смещения при чтении : 667
Способность читать области Lead-in и Lead-out : Нет
Заполнение пропущенных сэмплов тишиной : Да
Удаление блоков с тишиной в начале и конце : Нет
При вычислениях CRC использовались нулевые сэмплы : Да
Интерфейс : Установленный внешний ASPI-интерфейс

Выходной формат : Внутренние WAV-операции
Формат сэмплов : 44.100 Гц; 16 бит; стерео

TOC извлечённого CD

Трек | Старт | Длительность | Начальный сектор | Конечный сектор
---------------------------------------------------------------------
1 | 0:00.33 | 3:22.05 | 33 | 15187
2 | 3:22.38 | 4:01.15 | 15188 | 33277
3 | 7:23.53 | 2:17.50 | 33278 | 43602
4 | 9:41.28 | 5:03.12 | 43603 | 66339
5 | 14:44.40 | 3:49.40 | 66340 | 83554
6 | 18:34.05 | 4:19.50 | 83555 | 103029
7 | 22:53.55 | 5:11.13 | 103030 | 126367
8 | 28:04.68 | 4:03.32 | 126368 | 144624
9 | 32:08.25 | 3:05.38 | 144625 | 158537
10 | 35:13.63 | 3:20.65 | 158538 | 173602
11 | 38:34.53 | 5:03.47 | 173603 | 196374
12 | 43:38.25 | 6:40.58 | 196375 | 226432
13 | 50:19.08 | 3:36.50 | 226433 | 242682
14 | 53:55.58 | 4:55.37 | 242683 | 264844
15 | 58:51.20 | 4:06.13 | 264845 | 283307
16 | 62:57.33 | 3:55.27 | 283308 | 300959
17 | 66:52.60 | 4:25.10 | 300960 | 320844
18 | 71:17.70 | 2:26.28 | 320845 | 331822

Характеристики диапазона извлечения и сообщения об ошибках

Выбранный диапазон

Имя файла C:\999\Lombard - Najwieksze Przeboje '81-'91.wav

Подозрительная позиция 1:01:00 - 1:01:01

Пиковый уровень 100.0 %
Качество диапазона 99.8 %
CRC копии 7203D510
Копирование завершено

Были ошибки

AccurateRip: сводка

Трек 1 точность не определена (достоверность 1) [C436BDB5], AccurateRip вернул [F5A283E2]
Трек 2 точность не определена (достоверность 1) [629D640D], AccurateRip вернул [5E888A8F]
Трек 3 точность не определена (достоверность 1) [012F5CB0], AccurateRip вернул [2A229F01]
Трек 4 нет в базе данных
Трек 5 точность не определена (достоверность 1) [29880BC8], AccurateRip вернул [57BF4E03]
Трек 6 точность не определена (достоверность 1) [5650225A], AccurateRip вернул [A0A99781]
Трек 7 точность не определена (достоверность 1) [80A71DCC], AccurateRip вернул [4A9788E3]
Трек 8 точность не определена (достоверность 1) [4A5419F3], AccurateRip вернул [13EA1AB9]
Трек 9 точность не определена (достоверность 1) [5CA6DE9E], AccurateRip вернул [35CBD753]
Трек 10 точность не определена (достоверность 1) [6BB87A2B], AccurateRip вернул [36A56264]
Трек 11 точность не определена (достоверность 1) [B5A279F2], AccurateRip вернул [5B1749EC]
Трек 12 точность не определена (достоверность 1) [B183BD66], AccurateRip вернул [F196C041]
Трек 13 точность не определена (достоверность 1) [4CEEA4D0], AccurateRip вернул [6A3B18D2]
Трек 14 точность не определена (достоверность 1) [2D500CA0], AccurateRip вернул [9A33F7A7]
Трек 15 точность не определена (достоверность 1) [0195D447], AccurateRip вернул [1D635A4E]
Трек 16 точность не определена (достоверность 1) [BB0BC285], AccurateRip вернул [87FF44C8]
Трек 17 точность не определена (достоверность 1) [91780242], AccurateRip вернул [4B78612C]
Трек 18 точность не определена (достоверность 1) [E5B6FD29], AccurateRip вернул [F6C525A9]

17 трек(и) не удалось проверить на точность
1 трек(и) не содержатся в базе AccurateRip

Ни один трек не прошёл проверки на точность

Конец отчёта
Треклист
1. "Szklana pogoda" (Grzegorz Stróżniak – Marek Dutkiewicz) – 3:28
2. "Kryształowa" (Grzegorz Stróżniak – Jacek Skubikowski) – 3:18
3. "Gołębi puch" (Grzegorz Stróżniak – Małgorzata Ostrowska) – 4:20
4. "Bye, Bye Jimi" (Grzegorz Stróżniak – Marek Dutkiewicz) – 9:00
5. "Droga Pani z TV" (Jacek Skubikowski – Jacek Skubikowski) – 4:00
6. "Anka" (Grzegorz Stróżniak – Jacek Skubikowski) – 4:36
7. "Taniec pingwina na szkle" (Jacek Skubikowski – Jacek Skubikowski) – 4:32
8. "Kto mi zapłaci za łzy" (Grzegorz Stróżniak – Jacek Skubikowski) – 4:05
9. "Znowu radio" (Piotr Zander – Małgorzata Ostrowska) – 3:57
10. "Dwa słowa, dwa światy" (Grzegorz Stróżniak – Małgorzata Ostrowska) – 6:30
11. "EKG" (Grzegorz Stróżniak) – 4:45
Exact Audio Copy V0.99 prebeta 5 from 4. May 2009

Отчёт EAC об извлечении, выполненном 28. июля 2009, 15:18

Lombard / Najwieksze przeboje 1981-1987 (2)

Дисковод: HL-DT-STDVDRAM GSA-4082N Adapter: 0 ID: 0

Режим чтения : Достоверность
Использование точного потока : Да
Отключение кэша аудио : Да
Использование указателей C2 : Нет

Коррекция смещения при чтении : 667
Способность читать области Lead-in и Lead-out : Нет
Заполнение пропущенных сэмплов тишиной : Да
Удаление блоков с тишиной в начале и конце : Нет
При вычислениях CRC использовались нулевые сэмплы : Да
Интерфейс : Установленный внешний ASPI-интерфейс

Выходной формат : Внутренние WAV-операции
Формат сэмплов : 44.100 Гц; 16 бит; стерео

TOC извлечённого CD

Трек | Старт | Длительность | Начальный сектор | Конечный сектор
---------------------------------------------------------------------
1 | 0:00.27 | 3:35.58 | 27 | 16209
2 | 3:36.10 | 3:23.70 | 16210 | 31504
3 | 7:00.05 | 4:26.37 | 31505 | 51491
4 | 11:26.42 | 9:07.50 | 51492 | 92566
5 | 20:34.17 | 4:08.13 | 92567 | 111179
6 | 24:42.30 | 4:44.17 | 111180 | 132496
7 | 29:26.47 | 4:39.65 | 132497 | 153486
8 | 34:06.37 | 4:13.20 | 153487 | 172481
9 | 38:19.57 | 4:06.18 | 172482 | 190949
10 | 42:26.00 | 6:41.57 | 190950 | 221081
11 | 49:07.57 | 4:46.13 | 221082 | 242544

Характеристики диапазона извлечения и сообщения об ошибках

Выбранный диапазон

Имя файла C:\999\Lombard - Najwieksze przeboje 1981-1987 (2).wav

Пиковый уровень 100.0 %
Качество диапазона 100.0 %
CRC копии D43DEE92
Копирование... OK

Ошибок не произошло

AccurateRip: сводка

Трек 1 нет в базе данных
Трек 2 нет в базе данных
Трек 3 нет в базе данных
Трек 4 нет в базе данных
Трек 5 нет в базе данных
Трек 6 нет в базе данных
Трек 7 нет в базе данных
Трек 8 нет в базе данных
Трек 9 нет в базе данных
Трек 10 нет в базе данных
Трек 11 нет в базе данных

Ни одного трека нет в базе AccurateRip

Конец отчёта


Трекер:  [ 05-Янв-2013 11:28 ]

  

Скачать .torrent

Размер .torrent файла 17 KB


Размер: 2.26 GB
Хэш (hash) релиза: 7680a1ed4b4f682cc19ad0e2a3db5a8c7d153af0

Торренты, похожие на Lombard скачать торрент

Форум Название Автор Размер S L Добавлен
Электронная музыка (mp3) ·· (Deep House, Soulful House, House) Lombard Street - Discography (4 Singles & EP) - 2014-2016, MP3, 320 kbps Galfimbul 179798543171 MB 0 0 1455975244

16:34

20-Фев-16

Зарубежный Rock ·· (East Rock/Pop-Rock) Lombard (Poland)- 19 альбомов (1983-2002), MP3 (tracks), 128-320 kbps Galfimbul 20856441571.94 GB 0 0 1357332900

23:55

4-Янв-13

Зарубежный Rock ·· (Pop Rock) Lombard - 8 Albums - 1983-2007, MP3, 320 kbps Galfimbul 10920016761.02 GB 0 0 1357030920

12:02

1-Янв-13

Зарубежный Rock ·· (Pop Rock) Małgorzata Ostrowska (Malgorzata Ostrowska) - ex- Lombard - Collection (5 Albums) - 1993-2007, MP3, 128-320 kbps Galfimbul 603908001576 MB 0 0 1356248220

10:37

23-Дек-12

Еще никто не оставлял запись к записи скачать торрент Lombard . Будь первым!

!Обратная связь