Скачать через торрент музыку John Sykes - Bad Boys Live! - 2005, FLAC бесплатно без регистрации torrent

Если у вас наблюдаются проблемы со скриншотами, переходом по ссылками, скачиванием торрентов - проблемы в блокировщике рекламы AdBlock. #хорошегоДня!


Статистика раздачи
Размер:  428 MB   |    Зарегистрирован:  4 года 7 месяцев   |    .torrent скачан:  24 раза   |   
Раздают:  1  
   
Загрузка...
 
Автор Сообщение

Galfimbul

avatar Galfimbul


John Sykes / Bad Boys Live!

Жанр: Hard Rock
Год издания: 2005
Аудиокодек: FLAC (*.flac)
Тип рипа: image+.cue
Битрейт аудио: lossless
Продолжительность: 56:10
Источник (релизер): my disc
Наличие сканов в содержимом раздачи: да
Треклист:
01. Bad Boys [0:04:17.70]
02. We All Fall Down [0:05:05.37]
03. Cold Sweat [0:03:33.43]
04. Crying In The Rain [0:06:06.10]
05. Jelly Roll [0:05:06.57]
06. Is This Love [0:04:22.58]
07. Look In His Eyes [0:04:53.42]
08. I Don't Wanna Live My Life Like You [0:03:26.43]
09. Please Don't Leave Me [0:05:45.22]
10. Still Of The Night [0:08:16.08]
11. Thunder And Lightning [0:05:16.25]
Exact Audio Copy V0.99 prebeta 4 from 23. January 2008

Отчёт EAC об извлечении, выполненном 5. января 2013, 14:35

John Sykes / Bad Boy Live !

Дисковод: ASUS DRW-1814BL Adapter: 1 ID: 0

Режим чтения : ДостоверностьИспользование точного потока : ДаОтключение кэша аудио : ДаИспользование указателей C2 : Нет

Коррекция смещения при чтении : 6Способность читать области Lead-in и Lead-out : НетЗаполнение пропущенных сэмплов тишиной : ДаУдаление блоков с тишиной в начале и конце : НетПри вычислениях CRC использовались нулевые сэмплы : ДаИнтерфейс : Установленный внешний ASPI-интерфейс

Выходной формат : Пользовательский кодировщикВыбранный битрейт : 1024 kBit/sКачество : ВысокийДобавление ID3-тэга : НетУтилита сжатия : C:\Program Files\Exact Audio Copy\FLAC\FLAC.EXEДополнительные параметры : -6 -V -T "ARTIST=%a" -T "TITLE=%t" -T "ALBUM=%g" -T "DATE=%y" -T "TRACKNUMBER=%n" -T "GENRE=%m" -T "COMMENT=%e" %s -o %d

TOC извлечённого CD

Трек | Старт | Длительность | Начальный сектор | Конечный сектор --------------------------------------------------------------------- 1 | 0:00.00 | 4:17.70 | 0 | 19344 2 | 4:17.70 | 5:05.37 | 19345 | 42256 3 | 9:23.32 | 3:33.43 | 42257 | 58274 4 | 12:57.00 | 6:06.10 | 58275 | 85734 5 | 19:03.10 | 5:06.57 | 85735 | 108741 6 | 24:09.67 | 4:22.58 | 108742 | 128449 7 | 28:32.50 | 4:53.42 | 128450 | 150466 8 | 33:26.17 | 3:26.43 | 150467 | 165959 9 | 36:52.60 | 5:45.22 | 165960 | 191856 10 | 42:38.07 | 8:16.08 | 191857 | 229064 11 | 50:54.15 | 5:16.25 | 229065 | 252789

Характеристики диапазона извлечения и сообщения об ошибках

Выбранный диапазон

Имя файла D:\loSSleSS\J.Sykes'05 (live)\John Sykes - Bad Boy Live !.wav

Пиковый уровень 98.8 % Качество диапазона 100.0 % CRC теста 5266B150 CRC копии 5266B150 Копирование... OK

Ошибок не произошло

AccurateRip: сводка

Трек 1 нет в базе данныхТрек 2 нет в базе данныхТрек 3 нет в базе данныхТрек 4 нет в базе данныхТрек 5 нет в базе данныхТрек 6 нет в базе данныхТрек 7 нет в базе данныхТрек 8 нет в базе данныхТрек 9 нет в базе данныхТрек 10 нет в базе данныхТрек 11 нет в базе данных

Ни одного трека нет в базе AccurateRip

Конец отчёта
Доп. информация: Recorded Live 2004 in Japan.
John Sykes:giutar and vocals
Marco Mendoza:bass and background vocals
Tommy Aldridge:drums
Derek Sherinian:keyboards and background vocals


Трекер:  [ 05-Янв-2013 11:28 ]

  

Скачать .torrent

Размер .torrent файла 17 KB


Размер: 428 MB
Хэш (hash) релиза: 6d6ec851c6899ffa8b40c54b2708bc80322566e1

Еще никто не оставлял запись к записи скачать торрент John Sykes - Bad Boys Live! - 2005, FLAC . Будь первым!

!Обратная связь