Скачать через торрент [iPad] Список контактов Deception бесплатно русская версия torrent активатор

Если у вас наблюдаются проблемы со скриншотами, переходом по ссылками, скачиванием торрентов - проблемы в блокировщике рекламы AdBlock. #хорошегоДня!


Статистика раздачи
Размер:  1.85 GB   |    Зарегистрирован:  4 года 9 месяцев   |    .torrent скачан:  52 раза   |   
Раздают:  1  
   
Загрузка...
 
Автор Сообщение

L


Список контактов / Deception

«Вы свободны сегодня вечером?»

Год выпуска: 2008
Страна: США
Студия: 20th Century Fox
Жанр: Триллер, драма, криминал, детектив
Продолжительность: 01:47:49
Рейтинг MPAA: R
Перевод: Профессиональный (дублированный)
Оригинальная аудиодорожка: есть
Cубтитры: русские и английские

Режиссёр: Марсель Лангенеггер/ Marcel Langenegger
Сценарий: Марк Бомбэк
Продюссер: Робби Бреннер, Дэвид Л. Бушнелл, Кристофер Эбертс

В ролях: Юэн МакГрегор, Хью Джекман, Мишель Уильямс, Брюс Олтмен, Эндрю Гинсбург, Стефани Рот Хаберли, Кристин Кан, Данте Спинотти, Каролина Мюллер, Агнет Орнсхолт, Мелисса Рэй Махон, Рэйчел Монтец Коллинз, Холли Крюкшенк, Дебора Йэтс, Билл Кэмп, Зои Перри, Ая Кэш, Фрэнк Жирардо, Наташа Хенстридж, Шарлотта Рэмплинг, Пас де ла Уэрта, Дэйзи Бейтс, Шэннан Клик, Малкольм Гудвин, Джордан Тестей, Рэйчел Тейлор, Сэлли Люн Байер, Кеннет Дж. Йонг, Лиза Гэй Хэмилтон, Пол Спаркс, Кеннет Ли, Джеймс Маццола, Лиза Крон, Маргарет Колин, Линн Коэн, Питер Сканавино, Мэгги Кью, Фрэнк Дил, Флоренция Лозаньо, Эмели Джеффрис, Дэнни Бурстейн, Чандлер Паркер, Питер Дж. Фернанде

Описание:
Джонатан МакУори не живёт — у него нет девушки, нет семьи, друзей, и лишь карьера движет им. Однажды засидевшись допоздна в офисе, он знакомится с харизматичным и бойким молодым адвокатом Уайттом Босом. Они быстро находят общий язык, и вот Джонатан уже в ночном клубе в окружении сногсшибательных девушек, и Уайатт представляет ему «С» — женщину, о которой Джонатан ранее не смел и мечтать.Так у Джонатана появляется всё, чего ему так не хватало. Но бесплатный сыр бывает лишь в мышеловке... Уайтт далеко не безгрешен, а его вмешательство в судьбу Джонатана — не бескорыстно. В смертельно опасном мире Уайатта Джонатан всего лишь турист.

Доп. информация:


Качество исходника: BDRemux - Список контактов / Deception / 2008 / ДБ, СТ / Blu-Ray Remux (1080p)
Качество: BDRip
Разрешение: 1024х432
Формат: MP4
Видео: H.264, 2,40:1 , 2200kbit/s; 23.976fps

Аудио 1: Russian/Dub, AAC, 127kbit/s; 2ch; 48KHz
Аудио 2: English/Original, AAC, 126kbit/s; 2ch; 48KHz
XID: Apple:vendor_id:2008-258275contentID: 289547294Screenwriters: Марк БомбэкProducers: Робби Бреннер, Дэвид Л. Бушнелл, Кристофер ЭбертсDirector: Марсель ЛангенеггерCast: Хью Джекман, Эван МакГрегор, Мишель Уильямс, Лиза Гэй Хэмилтон, Мэгги Кью, Наташа Хенстридж, Линн Коэн, Дэнни Бурстейн, Малкольм Гудвин, Шарлотта РэмплингRating: 5Long Description: Они быстро находят общий язык, и вот Джонатан уже в ночном клубе в окружении сногсшибательных девушек, и Уайатт представляет ему «С» — женщину, о которой Джонатан ранее не смел и мечтать.Так у Джонатана появляется всё, чего ему так не хватало. Но бесплатный сыр бывает лишь в мышеловке... Уайтт далеко не безгрешен, а его вмешательство в судьбу Джонатана — не бескорыстно. В смертельно опасном мире Уайатта Джонатан всего лишь турист.Description: Джонатан МакУори не живёт — у него нет девушки, нет семьи, друзей, и лишь карьера движет им. Однажды засидевшись допоздна в офисе, он знакомится с харизматичным и бойким молодым адвокатом Уайттом БосомRelease Date: 2008-04-24T15:00:00ZGenre: ThrillerArtist: Марсель ЛангенеггерName: Список контактов
GeneralComplete name : /Users/imac/HandBrake/Spisok.kontaktov.2008.x264.BDRip.1024x.m4vFormat : MPEG-4Codec ID : M4VFile size : 1.85 GiBDuration : 1h 47mnOverall bit rate mode : VariableOverall bit rate : 2 457 KbpsMovie name : Список контактовPerformer : Марсель ЛангенеггерGenre : ThrillerRecorded date : UTC 2008-04-24 15:00:00Encoded date : UTC 2013-01-04 21:47:25Tagged date : UTC 2013-01-04 21:50:01Cover : Yesdesc : Джонатан МакУори не живёт — у него нет девушки, нет семьи, друзей, и лишь карьера движет им. Однажды засидевшись допоздна в офисе, он знакомится с харизматичным и бойким молодым адвокатом Уайттом Босомldes : Они быстро находят общий язык, и вот Джонатан уже в ночном клубе в окружении сногсшибательных девушек, и Уайатт представляет ему «С» — женщину, о которой Джонатан ранее не смел и мечтать.Так у Джонатана появляется всё, чего ему так не хватало. Но бесплатный сыр бывает лишь в мышеловке... Уайтт далеко не безгрешен, а его вмешательство в судьбу Джонатана — не бескорыстно. В смертельно опасном мире Уайатта Джонатан всего лишь турист.stik : 9rtng : 0cnID : 289547294xid : Apple:vendor_id:2008-258275iTunEXTC : mpaa|R|400|iTunMOVI : <?xml version="1.0" encoding="UTF-8"?> / <!DOCTYPE plist PUBLIC "-//Apple//DTD PLIST 1.0//EN" "http://www.apple.com/DTDs/PropertyList-1.0.dtd"> / <plist version="1.0"> / <dict> / <key>cast</key> / <array> / <dict> / <key>name</key> / <string>Хью Джекман</string> / </dict> / <dict> / <key>name</key> / <string>Эван МакГрегор</string> / </dict> / <dict> / <key>name</key> / <string>Мишель Уильямс</string> / </dict> / <dict> / <key>name</key> / <string>Лиза Гэй Хэмилтон</string> / </dict> / <dict> / <key>name</key> / <string>Мэгги Кью</string> / </dict> / <dict> / <key>name</key> / <string>Наташа Хенстридж</string> / </dict> / <dict> / <key>name</key> / <string>Линн Коэн</string> / </dict> / <dict> / <key>name</key> / <string>Дэнни Бурстейн</string> / </dict> / <dict> / <key>name</key> / <string>Малкольм Гудвин</string> / </dict> / <dict> / <key>name</key> / <string>Шарлотта Рэмплинг</string> / </dict> / </array> / <key>directors</key> / <array> / <dict> / <key>name</key> / <string>Марсель Лангенеггер</string> / </dict> / </array> / <key>producers</key> / <array> / <dict> / <key>name</key> / <string>Робби Бреннер</string> / </dict> / <dict> / <key>name</key> / <string>Дэвид Л. Бушнелл</string> / </dict> / <dict> / <key>name</key> / <string>Кристофер Эбертс</string> / </dict> / </array> / <key>screenwriters</key> / <array> / <dict> / <key>name</key> / <string>Марк Бомбэк</string> / </dict> / </array> / </dict> / </plist>

VideoID : 1Format : AVCFormat/Info : Advanced Video CodecFormat profile : <a href="mailto:High@L3.1Format" class="postLink">High@L3.1Format</a> settings, CABAC : YesFormat settings, ReFrames : 9 framesCodec ID : avc1Codec ID/Info : Advanced Video CodingDuration : 1h 47mnBit rate mode : VariableBit rate : 2 200 KbpsWidth : 1 024 pixelsHeight : 432 pixelsDisplay aspect ratio : 2.40:1Frame rate mode : VariableFrame rate : 23.976 fpsMinimum frame rate : 23.810 fpsMaximum frame rate : 24.390 fpsColor space : YUVChroma subsampling : 4:2:0Bit depth : 8 bitsScan type : ProgressiveBits/(Pixel*Frame) : 0.207Stream size : 1.65 GiB (89%)Writing library : x264 core 120Encoding settings : cabac=1 / ref=9 / deblock=1:0:0 / analyse=0x3:0x113 / me=umh / subme=9 / psy=1 / psy_rd=1.00:0.00 / mixed_ref=1 / me_range=32 / chroma_me=1 / trellis=1 / 8x8dct=1 / cqm=0 / deadzone=21,11 / fast_pskip=1 / chroma_qp_offset=-2 / threads=12 / sliced_threads=0 / nr=0 / decimate=1 / interlaced=0 / bluray_compat=0 / constrained_intra=0 / bframes=6 / b_pyramid=2 / b_adapt=2 / b_bias=0 / direct=1 / weightb=1 / open_gop=0 / weightp=2 / keyint=240 / keyint_min=24 / scenecut=40 / intra_refresh=0 / rc_lookahead=40 / rc=2pass / mbtree=1 / bitrate=2200 / ratetol=1.0 / qcomp=0.60 / qpmin=3 / qpmax=69 / qpstep=4 / cplxblur=20.0 / qblur=0.5 / ip_ratio=1.40 / aq=1:1.00Language : EnglishEncoded date : UTC 2013-01-04 21:47:25Tagged date : UTC 2013-01-04 21:49:24Color primaries : BT.709-5, BT.1361, IEC 61966-2-4, SMPTE RP177Transfer characteristics : BT.709-5, BT.1361Matrix coefficients : BT.709-5, BT.1361, IEC 61966-2-4 709, SMPTE RP177

Audio #1ID : 2Format : AACFormat/Info : Advanced Audio CodecFormat profile : LCCodec ID : 40Duration : 1h 47mnBit rate mode : VariableBit rate : 127 KbpsMaximum bit rate : 192 KbpsChannel(s) : 2 channelsChannel positions : Front: L RSampling rate : 48.0 KHzCompression mode : LossyStream size : 97.9 MiB (5%)Language : RussianEncoded date : UTC 2013-01-04 21:47:25Tagged date : UTC 2013-01-04 21:49:40

Audio #2ID : 3Format : AACFormat/Info : Advanced Audio CodecFormat profile : LCCodec ID : 40Duration : 1h 47mnBit rate mode : VariableBit rate : 126 KbpsMaximum bit rate : 184 KbpsChannel(s) : 2 channelsChannel positions : Front: L RSampling rate : 48.0 KHzCompression mode : LossyStream size : 97.2 MiB (5%)Language : EnglishEncoded date : UTC 2013-01-04 21:47:25Tagged date : UTC 2013-01-04 21:50:00

Text #1ID : 4Format : Timed textMuxing mode : sbtlCodec ID : tx3gDuration : 1h 39mnBit rate mode : VariableBit rate : 78 bpsStream size : 57.3 KiB (0%)Language : RussianEncoded date : UTC 2013-01-04 21:47:25Tagged date : UTC 2013-01-04 21:50:00

Text #2ID : 5Format : Timed textMuxing mode : sbtlCodec ID : tx3gDuration : 1h 35mnBit rate mode : VariableBit rate : 51 bpsStream size : 35.9 KiB (0%)Language : EnglishEncoded date : UTC 2013-01-04 21:47:25Tagged date : UTC 2013-01-04 21:50:01
x264 [info]: frame I:1388 Avg QP:14.13 size: 71814 PSNR Mean Y:48.85 U:50.76 V:52.07 Avg:49.42 Global:48.84x264 [info]: frame P:38323 Avg QP:16.72 size: 20420 PSNR Mean Y:48.15 U:51.49 V:53.56 Avg:48.97 Global:47.55x264 [info]: frame B:115389 Avg QP:19.08 size: 7745 PSNR Mean Y:45.93 U:50.26 V:52.95 Avg:46.93 Global:46.27x264 [info]: consecutive B-frames: 2.9% 3.4% 5.4% 51.0% 12.7% 17.4% 7.2%x264 [info]: mb I I16..4: 16.9% 62.9% 20.2%x264 [info]: mb P I16..4: 3.0% 9.9% 2.2% P16..4: 34.0% 23.7% 13.0% 0.0% 0.0% skip:14.3%x264 [info]: mb B I16..4: 0.3% 1.8% 0.2% B16..8: 39.5% 10.8% 2.7% direct: 5.4% skip:39.2% L0:44.3% L1:46.0% BI: 9.8%x264 [info]: 8x8 transform intra:68.3% inter:66.1%x264 [info]: coded y,uvDC,uvAC intra: 80.6% 82.9% 63.9% inter: 27.2% 24.4% 4.7%x264 [info]: i16 v,h,dc,p: 46% 12% 9% 33%x264 [info]: i8 v,h,dc,ddl,ddr,vr,hd,vl,hu: 10% 8% 7% 10% 14% 14% 13% 12% 12%x264 [info]: i4 v,h,dc,ddl,ddr,vr,hd,vl,hu: 12% 10% 5% 9% 14% 14% 13% 11% 12%x264 [info]: i8c dc,h,v,p: 49% 18% 18% 15%x264 [info]: Weighted P-Frames: Y:3.6% UV:1.1%x264 [info]: ref P L0: 49.5% 9.7% 17.7% 6.7% 5.6% 3.9% 3.2% 1.8% 1.7% 0.1% 0.0%x264 [info]: ref B L0: 71.1% 12.8% 6.5% 3.3% 2.8% 2.1% 1.0% 0.3%x264 [info]: ref B L1: 91.7% 8.3%x264 [info]: SSIM Mean Y:0.9854296 (18.365db)x264 [info]: PSNR Mean Y:46.508 U:50.571 V:53.091 Avg:47.457 Global:46.570 kb/s:2196.21


Трекер:  [ 05-Янв-2013 12:42 ]

  

Скачать .torrent

Размер .torrent файла 37 KB


Размер: 1.85 GB
Хэш (hash) релиза: f868b53026e95366c70105f4178b0b7b494746e2

Еще никто не оставлял запись к записи скачать торрент [iPad] Список контактов Deception . Будь первым!

!Обратная связь