Скачать через торрент музыку Nosound - At the Pier бесплатно без регистрации torrent

Если у вас наблюдаются проблемы со скриншотами, переходом по ссылками, скачиванием торрентов - проблемы в блокировщике рекламы AdBlock. #хорошегоДня!


Статистика раздачи
Размер:  95 MB   |    Зарегистрирован:  4 года 9 месяцев   |    .torrent скачан:  32 раза   |   
Раздают:  1  
   
Загрузка...
 
Автор Сообщение

Galfimbul

avatar Galfimbul



Nosound / At the Pier (EP)


Жанр: Psychedelic/Space Rock
Год издания: 2012
Издатель (лейбл): Kscope
Номер по каталогу: KSCOPE239
Страна: Italy
Аудиокодек: FLAC (*.flac)
Тип рипа: tracks+.cue
Битрейт аудио: lossless
Продолжительность: 15:27
Источник (релизер): derpolnischesperber
Наличие сканов в содержимом раздачи: нет
Треклист:
01. A New Start (5:23)
02. The Anger Song (4:17)
03. Two Monkeys (5:47)
Exact Audio Copy V1.0 beta 3 from 29. August 2011

EAC extraction logfile from 2. January 2013, 18:09

NOSOUND / at the pier

Used drive : Optiarc DVD RW AD-7910S Adapter: 2 ID: 0

Read mode : SecureUtilize accurate stream : YesDefeat audio cache : YesMake use of C2 pointers : No

Read offset correction : 48Overread into Lead-In and Lead-Out : NoFill up missing offset samples with silence : YesDelete leading and trailing silent blocks : NoNull samples used in CRC calculations : YesUsed interface : Native Win32 interface for Win NT & 2000Gap handling : Appended to previous track

Used output format : User Defined EncoderSelected bitrate : 896 kBit/sQuality : HighAdd ID3 tag : NoCommand line compressor : C:\Program Files\Exact Audio Copy\Flac\flac.exeAdditional command line options : -8 -V -T "ARTIST=%artist%" -T "TITLE=%title%" -T "ALBUM=%albumtitle%" -T "DATE=%year%" -T "TRACKNUMBER=%tracknr%" -T "GENRE=%genre%" -T "PERFORMER=%albuminterpret%" -T "COMPOSER=%composer%" %haslyrics%--tag-from-file=LYRICS="%lyricsfile%"%haslyrics% -T "ALBUMARTIST=%albumartist%" -T "DISCNUMBER=%cdnumber%" -T "TOTALDISCS=%totalcds%" -T "TOTALTRACKS=%numtracks%" -T "COMMENT=%comment%" %source% -o %dest%

TOC of the extracted CD

Track | Start | Length | Start sector | End sector --------------------------------------------------------- 1 | 0:00.00 | 5:22.41 | 0 | 24190 2 | 5:22.41 | 4:17.19 | 24191 | 43484 3 | 9:39.60 | 5:47.23 | 43485 | 69532

Track 1

Filename C:\users\ho\Desktop\01 - a new start.wav

Pre-gap length 0:00:02.00

Peak level 96.5 % Extraction speed 1.2 X Track quality 100.0 % Test CRC 2027FB15 Copy CRC 2027FB15 Track not present in AccurateRip database Copy OK

Track 2

Filename C:\users\ho\Desktop\02 - the anger song.wav

Peak level 96.5 % Extraction speed 1.4 X Track quality 100.0 % Test CRC 0682A2C7 Copy CRC 0682A2C7 Track not present in AccurateRip database Copy OK

Track 3

Filename C:\users\ho\Desktop\03 - two monkeys.wav

Peak level 96.5 % Extraction speed 1.5 X Track quality 100.0 % Test CRC C0144637 Copy CRC C0144637 Track not present in AccurateRip database Copy OK

None of the tracks are present in the AccurateRip database

No errors occurred

End of status report

==== Log checksum 833F1366B5AC347E7638825ECA52524C72E081AE584A35F6780FDD0EA4D11F38 ====
REM DATE 2012PERFORMER "NOSOUND"TITLE "at the pier"FILE "01 - a new start.flac" WAVE TRACK 01 AUDIO TITLE "a new start" INDEX 01 00:00:00FILE "02 - the anger song.flac" WAVE TRACK 02 AUDIO TITLE "the anger song" INDEX 01 00:00:00FILE "03 - two monkeys.flac" WAVE TRACK 03 AUDIO TITLE "two monkeys" INDEX 01 00:00:00
-----------------------

DON'T MODIFY THIS FILE

-----------------------

PERFORMER: auCDtect Task Manager, ver. 1.5.1RC4 build 1.5.1.5Copyright (c) 2008-2010 y-soft. All rights reservedhttp://y-soft.org

ANALYZER: auCDtect: CD records authenticity detector, version 0.8.2Copyright (c) 2004 Oleg Berngardt. All rights reserved.Copyright (c) 2004 Alexander Djourik. All rights reserved.

FILE: 03 - two monkeys.flac Size: 30894957 Hash: 436D6B6DB47B47D3A37D2A3189FF1943 Accuracy: -m0 Conclusion: CDDA 100% Signature: F6140DE298F9048A1F16FFACD5F73FBD97AF2CDFFILE: 02 - the anger song.flac Size: 31242843 Hash: 9FA51DC1A6EE7FA223EE3956DE9EE21E Accuracy: -m0 Conclusion: CDDA 100% Signature: 0B1F3D8F4BD4842CFC578AB7F086A6EDD872CFD8FILE: 01 - a new start.flac Size: 37712245 Hash: D747633E5B1F859BC8F0867B14ECC39E Accuracy: -m0 Conclusion: CDDA 100% Signature: 2AC3251A1E92ED3273601828E5A6270A4DD38C48
- Giancarlo Erra / vocals, guitars and keyboards
- Marco Berni / keyboards and vocals
- Paolo Vigliarolo / acoustic and electric guitars
- Alessandro Luci / bass and keyboards

Guest musicians:
- Chris Maitland / drums
- Marianne De Chastelaine / cello


Трекер:  [ 04-Янв-2013 23:51 ]

  

Скачать .torrent

Размер .torrent файла 15 KB


Размер: 95 MB
Хэш (hash) релиза: b6aa4253d145ef07a6a090cce8359d65bc92d7f4

Торренты, похожие на Nosound - At the Pier скачать торрент

Форум Название Автор Размер S L Добавлен
Зарубежный Rock ·· (Psychedelic/Space Rock) Nosound - At the Pier (EP) - 2012, MP3, 320 kbps Galfimbul 3764826736 MB 0 0 1357332900

23:55

4-Янв-13

Еще никто не оставлял запись к записи скачать торрент Nosound - At the Pier . Будь первым!

!Обратная связь