Скачать через торрент музыку Peter Gabriel - Us бесплатно без регистрации torrent

Если у вас наблюдаются проблемы со скриншотами, переходом по ссылками, скачиванием торрентов - проблемы в блокировщике рекламы AdBlock. #хорошегоДня!


Статистика раздачи
Размер:  362 MB   |    Зарегистрирован:  4 года 7 месяцев   |    .torrent скачан:  25 раз   |   
Раздают:  1  
   
Загрузка...
 
Автор Сообщение

Galfimbul

avatar Galfimbul


PETER GABRIEL / Us (1992)
US - GEFD 24473, 1992

Жанр: Progressive rock, worldbeat
Страна исполнителя: England

Год выхода альбома: 1992
Страна-производитель диска: US
Издатель (лейбл): Geffen Records
Номер по каталогу: GEFD 24473
Год издания: 1992
Матрица: GEFD24473 0156817414
Mastering SID code: IFPI L771
Mould SID code: IFPI 2A20

Аудиокодек: FLAC (*.flac)
Тип рипа: image+.cue
Битрейт аудио: lossless
Продолжительность: 57:49
Наличие сканов в содержимом раздачи: 300 dpi (65,9 MB)

Источник (релизер): Vlattenham
01. Come Talk To Me (7:04)02. Love To Be Loved (5:16)03. Blood of Eden (6:35)04. Steam (6:02)05. Only Us (6:30)06. Washing of the Water (3:50)07. Digging in the Dirt (5:36)08. Fourteen Black Paintings (4:36)09. Kiss That Frog (5:27)10. Secret World (7:01)
Exact Audio Copy V1.0 beta 3 from 29. August 2011

Отчёт EAC об извлечении, выполненном 3. января 2013, 16:10

Peter Gabriel / Us [US - GEFD 24473, 1992]

Дисковод: HL-DT-STDVDRAM GT10N Adapter: 0 ID: 1

Режим чтения : ДостоверностьИспользование точного потока : ДаОтключение кэша аудио : ДаИспользование указателей C2 : Нет

Коррекция смещения при чтении : 102Способность читать области Lead-in и Lead-out : НетЗаполнение пропущенных сэмплов тишиной : ДаУдаление блоков с тишиной в начале и конце : НетПри вычислениях CRC использовались нулевые сэмплы : ДаИнтерфейс : Встроенный Win32-интерфейс для Win NT/2000

Выходной формат : Пользовательский кодировщикВыбранный битрейт : 128 kBit/sКачество : ВысокийДобавление ID3-тега : НетУтилита сжатия : C:\Program Files\Exact Audio Copy\Flac\flac.exeДополнительные параметры : -V -8 %source%

TOC извлечённого CD

Трек | Старт | Длительность | Начальный сектор | Конечный сектор --------------------------------------------------------------------- 1 | 0:00.00 | 7:05.52 | 0 | 31926 2 | 7:05.52 | 5:18.45 | 31927 | 55821 3 | 12:24.22 | 6:37.68 | 55822 | 85664 4 | 19:02.15 | 6:03.27 | 85665 | 112916 5 | 25:05.42 | 6:32.25 | 112917 | 142341 6 | 31:37.67 | 3:52.08 | 142342 | 159749 7 | 35:30.00 | 5:18.20 | 159750 | 183619 8 | 40:48.20 | 4:37.62 | 183620 | 204456 9 | 45:26.07 | 5:20.08 | 204457 | 228464 10 | 50:46.15 | 7:03.30 | 228465 | 260219

Характеристики диапазона извлечения и сообщения об ошибках

Выбранный диапазон

Имя файла C:\Documents and Settings\Vlattenham\Рабочий стол\Peter Gabriel - Us (1992) [US - GEFD 24473, 1992].wav

Пиковый уровень 99.8 % Скорость извлечения 1.9 X Качество диапазона 99.9 % CRC теста BEE3F6CA CRC копии BEE3F6CA Копирование... OK

Ошибок не произошло

AccurateRip: сводка

Трек 1 : извлечено точно (доверие 6) [9792A301] (AR v1)Трек 2 : извлечено точно (доверие 6) [BC603F3A] (AR v1)Трек 3 : извлечено точно (доверие 6) [5ACD465C] (AR v1)Трек 4 : извлечено точно (доверие 5) [96CAB693] (AR v1)Трек 5 : извлечено точно (доверие 6) [0D60C610] (AR v1)Трек 6 : извлечено точно (доверие 6) [B48975B2] (AR v1)Трек 7 : извлечено точно (доверие 6) [AD7B942F] (AR v1)Трек 8 : извлечено точно (доверие 6) [3F7ACB5C] (AR v1)Трек 9 : извлечено точно (доверие 5) [708FB549] (AR v1)Трек 10 : извлечено точно (доверие 5) [E4F96376] (AR v1)

Все треки извлечены точно

Конец отчёта

---- CUETools DB Plugin V2.1.3

[CTDB TOCID: mLS_AHY5ut3LjOBy728onec5nYg-] disk not present in database, Submit result: mLS_AHY5ut3LjOBy728onec5nYg- has been uploaded

==== Контрольная сумма отчёта 9B26481B250A230A5EC199AE19C016126408834D190DEAA1C04BC0E054848599 ====
REM DATE 1992REM DISCID 870D8D0AREM COMMENT "ExactAudioCopy v1.0b3"PERFORMER "Peter Gabriel"TITLE "Us [US - GEFD 24473, 1992]"FILE "Peter Gabriel - Us (1992) [US - GEFD 24473, 1992].flac" WAVE TRACK 01 AUDIO TITLE "Come Talk To Me" PERFORMER "Peter Gabriel" INDEX 01 00:00:00 TRACK 02 AUDIO TITLE "Love To Be Loved" PERFORMER "Peter Gabriel" INDEX 00 07:03:02 INDEX 01 07:05:52 TRACK 03 AUDIO TITLE "Blood of Eden" PERFORMER "Peter Gabriel" INDEX 00 12:20:67 INDEX 01 12:24:22 TRACK 04 AUDIO TITLE "Steam" PERFORMER "Peter Gabriel" INDEX 00 18:59:30 INDEX 01 19:02:15 TRACK 05 AUDIO TITLE "Only Us" PERFORMER "Peter Gabriel" INDEX 00 25:03:52 INDEX 01 25:05:42 TRACK 06 AUDIO TITLE "Washing of the Water" PERFORMER "Peter Gabriel" INDEX 00 31:35:52 INDEX 01 31:37:67 TRACK 07 AUDIO TITLE "Digging in the Dirt" PERFORMER "Peter Gabriel" INDEX 00 35:28:47 INDEX 01 35:30:00 TRACK 08 AUDIO TITLE "Fourteen Black Paintings" PERFORMER "Peter Gabriel" INDEX 00 40:45:12 INDEX 01 40:48:20 TRACK 09 AUDIO TITLE "Kiss That Frog" PERFORMER "Peter Gabriel" INDEX 00 45:23:15 INDEX 01 45:26:07 TRACK 10 AUDIO TITLE "Secret World" PERFORMER "Peter Gabriel" INDEX 00 50:41:50 INDEX 01 50:46:15



Трекер:  [ 04-Янв-2013 23:51 ]

  

Скачать .torrent

Размер .torrent файла 15 KB


Размер: 362 MB
Хэш (hash) релиза: 4e0f4648fb700d856ed3583287c89d4bb3c0a859

Торренты, похожие на Peter Gabriel - Us скачать торрент

Форум Название Автор Размер S L Добавлен
Rосk | Mеtаl | Аltеrnаtivе, Рunk, Indереndеnt (losslеss) ·· (progressiv rock) Peter Gabriel - Us - 1992, APE (image + .cue), lossless Galfimbul 291651655278 MB 0 0 1297859505

15:31

16-Фев-11

Rосk | Mеtаl | Аltеrnаtivе, Рunk, Indереndеnt (losslеss) ·· (Electronic, Funk/Soul, Rock) Peter Gabriel - Us (Remastered Mini Vinyl CD) - 2002, APE (image+.cue), lossless Galfimbul 350377203334 MB 0 0 1297859110

15:25

16-Фев-11

Зарубежный Rock ·· (Progressive Rock) Peter Gabriel 1992-Us [PGCD 7 / Virgin 0777 7 86455 2 8 - Original Press], FLAC (image+.cue), lossless _N_ 404873106386 MB 0 0 1341655740

13:09

7-Июл-12

Еще никто не оставлял запись к записи скачать торрент Peter Gabriel - Us . Будь первым!

!Обратная связь