Скачать через торрент музыку Cathedral - Stained Glass Stories - 1978 бесплатно без регистрации torrent

Если у вас наблюдаются проблемы со скриншотами, переходом по ссылками, скачиванием торрентов - проблемы в блокировщике рекламы AdBlock. #хорошегоДня!


Статистика раздачи
Размер:  303 MB   |    Зарегистрирован:  4 года 7 месяцев   |    .torrent скачан:  22 раза   |   
Раздают:  1  
   
Загрузка...
 
Автор Сообщение

Galfimbul

avatar Galfimbul


Cathedral / Stained Glass Stories

Жанр: Symphonic Progressive
Страна-производитель диска: USA
Год издания: 1978 (1991)
Издатель (лейбл): Syn-Phonic
Номер по каталогу: SYNCD 3
Страна: USA
Аудиокодек: FLAC (*.flac)
Тип рипа: image+.cue
Битрейт аудио: lossless
Продолжительность: 0:45:55.50
Источник (релизер): личный диск
Наличие сканов в содержимом раздачи: да
Треклист:

01. Introspect [0:12:39.55]
02. Gong [0:07:02.16]
03. The Crossing [0:05:59.23]
04. Days & Changes [0:08:41.05]
05. The Search [0:11:33.26]
Exact Audio Copy V1.0 beta 3 from 29. August 2011

Отчёт EAC об извлечении, выполненном 3. января 2013, 19:14

Cathedral / Stained Glass Stories

Дисковод: TSSTcorpCDDVDW TS-L633J Adapter: 0 ID: 1

Режим чтения : ДостоверностьИспользование точного потока : ДаОтключение кэша аудио : ДаИспользование указателей C2 : Нет

Коррекция смещения при чтении : 6Способность читать области Lead-in и Lead-out : НетЗаполнение пропущенных сэмплов тишиной : ДаУдаление блоков с тишиной в начале и конце : НетПри вычислениях CRC использовались нулевые сэмплы : ДаИнтерфейс : Установленный внешний ASPI-интерфейс

Выходной формат : Пользовательский кодировщикВыбранный битрейт : 128 kBit/sКачество : ВысокийДобавление ID3-тега : НетУтилита сжатия : C:\Program Files\Exact Audio Copy\FLAC\FLAC.EXEДополнительные параметры : -6 -V -T "ARTIST=%artist%" -T "TITLE=%title%" -T "ALBUM=%albumtitle%" -T "DATE=%year%" -T "TRACKNUMBER=%tracknr%" -T "GENRE=%genre%" -T "COMMENT=%comment%" -T "BAND=%albuminterpret%" -T "ALBUMARTIST=%albuminterpret%" -T "COMPOSER=%composer%" %haslyrics%--tag-from-file=LYRICS="%lyricsfile%"%haslyrics% -T "DISCNUMBER=%cdnumber%" -T "TOTALDISCS=%totalcds%" -T "TOTALTRACKS=%numtracks%" %hascover%--picture="%coverfile%"%hascover% %source% -o %dest%

TOC извлечённого CD

Трек | Старт | Длительность | Начальный сектор | Конечный сектор --------------------------------------------------------------------- 1 | 0:00.00 | 12:39.55 | 0 | 56979 2 | 12:39.55 | 7:02.16 | 56980 | 88645 3 | 19:41.71 | 5:59.23 | 88646 | 115593 4 | 25:41.19 | 8:41.05 | 115594 | 154673 5 | 34:22.24 | 11:33.26 | 154674 | 206674

Характеристики диапазона извлечения и сообщения об ошибках

Выбранный диапазон

Имя файла D:\РИПЫ\CATHEDRAL\Cathedral - Stained Glass Stories.wav

Пиковый уровень 99.3 % Скорость извлечения 2.7 X Качество диапазона 100.0 % CRC теста 392E231A CRC копии 392E231A Копирование... OK

Ошибок не произошло

AccurateRip: сводка

Трек 1 отсутствует в базе данныхТрек 2 отсутствует в базе данныхТрек 3 отсутствует в базе данныхТрек 4 отсутствует в базе данныхТрек 5 отсутствует в базе данных

Ни одного трека нет в базе AccurateRip

Конец отчёта

---- CUETools DB Plugin V2.1.3

[CTDB TOCID: XArjGa.J_VnYXJ28eXX2bA57O.M-] disk not present in database, Submit result: XArjGa.J_VnYXJ28eXX2bA57O.M- has been uploaded

==== Контрольная сумма отчёта 9337ABD3DD5D902622EE970FC8AEF9BF253B9B934335A045312F2D560F230CA5 ====
With the album Stained Glass Stories, Cathedral were at one time considered to be in the same league as Gentle Giant- Happy the Man- Yes-Tales...
Move forward 25 years to 2003 and the band reformed with this announcement:
In 2003, Fred called us all up to say he was putting the band back together! 25 years had passed since the release of "Stained Glass Stories". In one way or another reuniting was on all our minds...it was time. The internet, the technologies, the release of progressive music from current and past sources indicated it. We met in Fred's rehearsal space, bringing with us an assortment of new and old equipment. We faced the task of coming up with music that was true to the original values of Progressive Rock, grounded in history but not limited by it. In nearly four years we wrote hours of music. New ideas grew out of old ideas. A year ago we entered the recording studio. In the tremendously challenging process that followed, we lost our guitarist, Rudy Perrone. The addition of a new member would inevitably alter a 31 year chemistry of the band. Miraculously, with David Doig's perspectives, influences, and enormous musical knowledge in place, our continuity remained unbroken. CATHEDRAL, a band named after architecture designed to inspire awe and epiphany, LIVES! Tom Doncourt
http://www.proggnosis.com/ARTIST_Detail.aspx?AID=67
Альбом понравится прежде всего тем поклонникам симфо-прога, кто заслушивается альбомами Anglagard- Rudy Perrone- Sinkadus
- Mercury Caronia IV / drums, percussion
- Fred Callan / bass, bass pedals
- Paul Seal / lead vocals, percussion, bass pedals
- Tom Doncourt / keyboards, percussion
- Rudy Perrone / 6 and 12 string guitar, vocals


Трекер:  [ 04-Янв-2013 23:51 ]

  

Скачать .torrent

Размер .torrent файла 13 KB


Размер: 303 MB
Хэш (hash) релиза: c302b9201a4e832547fae92204baa6807cb788f0

Торренты, похожие на Cathedral - Stained Glass Stories - 1978 скачать торрент

Форум Название Автор Размер S L Добавлен
Rосk | Mеtаl | Аltеrnаtivе, Рunk, Indереndеnt (losslеss) ·· (Progressive rock) Cathedral - Stained Glass Stories - 1978, WAVPack (image + .cue + scans), lossless Galfimbul 291417736278 MB 0 0 1297859206

15:26

16-Фев-11

Еще никто не оставлял запись к записи скачать торрент Cathedral - Stained Glass Stories - 1978 . Будь первым!

!Обратная связь