Скачать через торрент музыку Beggars Opera - Nimbus: The Vertigo Years Anthology бесплатно без регистрации torrent

Если у вас наблюдаются проблемы со скриншотами, переходом по ссылками, скачиванием торрентов - проблемы в блокировщике рекламы AdBlock. #хорошегоДня!


Статистика раздачи
Размер:  913 MB   |    Зарегистрирован:  4 года 9 месяцев   |    .torrent скачан:  26 раз   |   
Раздают:  1  
   
Загрузка...
 
Автор Сообщение

Galfimbul

avatar Galfimbul


Beggars Opera / Nimbus: The Vertigo Years Anthology

Страна исполнителя: GB
Жанр: Progressive Rock
Страна-производитель диска: Made in E.U.
Год издания: 2012
Издатель (лейбл): esoteric
Номер по каталогу: ECLEC22343

Аудиокодек: FLAC (*.flac)
Тип рипа: image+.cue
Битрейт аудио: lossless
Продолжительность: 1:11:28 + 1:15:02
Источник (релизер): Собственный рип
Наличие сканов в содержимом раздачи: да

Треклист:
1. Poet And Peasant (Dichter Und Bauer) (7:14)
2. Passacaglia (7:07)
3. Memory (3:59)
4. Raymond's Road (11:55)
5. Light Cavalry (Leichte Kavallerie) (11:56)
Taken from the Album "Act One"
6. Sarabande (3:34)
7. Think (4:27)
A & B side of Single
8. Time Machine (8:09)
9. Lament (1:51)
10. I've No Idea (7:42)
11. Nimbus (3:34)
1. Festival (6:00)
2. Silver Peacock (Intro) (0:23)
3. Silver Peacock (6:32)
4. Impromptu (1:18)
5. The Fox (6:47)
Taken from the Album "Waters of Change"
6. Hobo (4:25)
7. Macarthur Park (8:20)
8. The Witch (6:05)
9. Pathfinder (3:45)
10. From Shark To Haggis (6:43)
11. Stretcher (4:50)
12. Madame Doubtfire (4:21)
Taken from the Album "Pathfinder"
13. Turn Your Money Green (4:09)
14. Working Man (4:34)
15. Requiem (2:17)
16. Classical Gas (4:33)
Taken from the Album "Get Your Dog Off Me"
Exact Audio Copy V1.0 beta 1 from 15. November 2010

EAC extraction logfile from 3. January 2013, 21:47

Beggars Opera / The Vertigo Years Anthology CD 1

Used drive : Optiarc DVD RW AD-7263S Adapter: 3 ID: 0

Read mode : SecureUtilize accurate stream : YesDefeat audio cache : YesMake use of C2 pointers : No

Read offset correction : 48Overread into Lead-In and Lead-Out : NoFill up missing offset samples with silence : YesDelete leading and trailing silent blocks : NoNull samples used in CRC calculations : YesUsed interface : Installed external ASPI interface

Used output format : User Defined EncoderSelected bitrate : 32 kBit/sQuality : HighAdd ID3 tag : NoCommand line compressor : C:\Program Files\Exact Audio Copy\Flac\flac.exeAdditional command line options : -T "DATE=%y" -T "GENRE=%m" -8 -V %s

TOC of the extracted CD

Track | Start | Length | Start sector | End sector --------------------------------------------------------- 1 | 0:00.00 | 7:14.38 | 0 | 32587 2 | 7:14.38 | 7:07.18 | 32588 | 64630 3 | 14:21.56 | 3:59.46 | 64631 | 82601 4 | 18:21.27 | 11:55.56 | 82602 | 136282 5 | 30:17.08 | 11:56.19 | 136283 | 190001 6 | 42:13.27 | 3:34.09 | 190002 | 206060 7 | 45:47.36 | 4:27.01 | 206061 | 226086 8 | 50:14.37 | 8:09.35 | 226087 | 262796 9 | 58:23.72 | 1:51.58 | 262797 | 271179 10 | 60:15.55 | 7:42.73 | 271180 | 305902 11 | 67:58.53 | 3:34.48 | 305903 | 322000

Range status and errors

Selected range

Filename C:\Documents and Settings\maxim\Мои документы\Beggars Opera - The Vertigo Years Anthology CD 1.wav

Peak level 98.8 % Extraction speed 0.2 X Range quality 100.0 % Test CRC 84DDE984 Copy CRC 84DDE984 Copy OK

No errors occurred

AccurateRip summary

Track 1 accurately ripped (confidence 1) [7BCAB53E]Track 2 accurately ripped (confidence 1) [0D8A1B53]Track 3 accurately ripped (confidence 1) [D77AF133]Track 4 accurately ripped (confidence 1) [BAC81B3A]Track 5 not present in databaseTrack 6 not present in databaseTrack 7 not present in databaseTrack 8 not present in databaseTrack 9 not present in databaseTrack 10 not present in databaseTrack 11 not present in database

4 track(s) accurately ripped 7 track(s) not present in the AccurateRip database

Some tracks could not be verified as accurate

End of status report

==== Log checksum 86373C7565AC7D14A373464317B7F6F572ABE437EB597AC0C75A9EC1594ACA85 ====
Exact Audio Copy V1.0 beta 1 from 15. November 2010

EAC extraction logfile from 4. January 2013, 12:23

Beggars Opera / The Vertigo Anthology CD 2

Used drive : Optiarc DVD RW AD-7263S Adapter: 3 ID: 0

Read mode : SecureUtilize accurate stream : YesDefeat audio cache : YesMake use of C2 pointers : No

Read offset correction : 48Overread into Lead-In and Lead-Out : NoFill up missing offset samples with silence : YesDelete leading and trailing silent blocks : NoNull samples used in CRC calculations : YesUsed interface : Installed external ASPI interface

Used output format : User Defined EncoderSelected bitrate : 32 kBit/sQuality : HighAdd ID3 tag : NoCommand line compressor : C:\Program Files\Exact Audio Copy\Flac\flac.exeAdditional command line options : -T "DATE=%y" -T "GENRE=%m" -8 -V %s

TOC of the extracted CD

Track | Start | Length | Start sector | End sector --------------------------------------------------------- 1 | 0:00.00 | 6:00.07 | 0 | 27006 2 | 6:00.07 | 0:23.34 | 27007 | 28765 3 | 6:23.41 | 6:32.22 | 28766 | 58187 4 | 12:55.63 | 1:18.30 | 58188 | 64067 5 | 14:14.18 | 6:47.30 | 64068 | 94622 6 | 21:01.48 | 4:25.39 | 94623 | 114536 7 | 25:27.12 | 8:20.59 | 114537 | 152095 8 | 33:47.71 | 6:05.10 | 152096 | 179480 9 | 39:53.06 | 3:45.73 | 179481 | 196428 10 | 43:39.04 | 6:43.73 | 196429 | 226726 11 | 50:23.02 | 4:50.40 | 226727 | 248516 12 | 55:13.42 | 4:21.54 | 248517 | 268145 13 | 59:35.21 | 4:09.17 | 268146 | 286837 14 | 63:44.38 | 4:34.13 | 286838 | 307400 15 | 68:18.51 | 2:17.18 | 307401 | 317693 16 | 70:35.69 | 4:33.29 | 317694 | 338197

Range status and errors

Selected range

Filename C:\Documents and Settings\maxim\Мои документы\Beggars Opera - The Vertigo Anthology CD 2.wav

Peak level 98.8 % Extraction speed 0.2 X Range quality 100.0 % Test CRC 0F43682F Copy CRC 0F43682F Copy OK

No errors occurred

AccurateRip summary

Track 1 not present in databaseTrack 2 not present in databaseTrack 3 not present in databaseTrack 4 not present in databaseTrack 5 not present in databaseTrack 6 not present in databaseTrack 7 not present in databaseTrack 8 not present in databaseTrack 9 not present in databaseTrack 10 not present in databaseTrack 11 not present in databaseTrack 12 not present in databaseTrack 13 not present in databaseTrack 14 not present in databaseTrack 15 not present in databaseTrack 16 not present in database

None of the tracks are present in the AccurateRip database

End of status report

==== Log checksum 89092EECDEA17E4EB19BEAEDAE148676A7DE97B0A1E337F04D0F58316344AEF7 ====


Трекер:  [ 04-Янв-2013 23:51 ]

  

Скачать .torrent

Размер .torrent файла 19 KB


Размер: 913 MB
Хэш (hash) релиза: db093842256c8445d5e378c923d1d923df2fb715

Еще никто не оставлял запись к записи скачать торрент Beggars Opera - Nimbus: The Vertigo Years Anthology . Будь первым!

!Обратная связь