Скачать через торрент музыку Mike & The Mechanics - Beggar On A Beach Of Gold - 1995, FLAC бесплатно без регистрации torrent

Если у вас наблюдаются проблемы со скриншотами, переходом по ссылками, скачиванием торрентов - проблемы в блокировщике рекламы AdBlock. #хорошегоДня!


Статистика раздачи
Размер:  464 MB   |    Зарегистрирован:  4 года 10 месяцев   |    .torrent скачан:  40 раз   |   
Раздают:  1  
   
Загрузка...
 
Автор Сообщение

Galfimbul

avatar Galfimbul


Mike & The Mechanics / Beggar On A Beach Of Gold

Жанр: Progressive & Art-Rock
Страна-производитель диска: Holand
Год издания: 1995
Издатель (лейбл): Virgin Records LTD
Номер по каталогу: CDV2772 7243 8 40143 2 2
Аудиокодек: FLAC (*.flac)
Тип рипа: image+.cue
Битрейт аудио: lossless
Продолжительность: 60'11''
Источник (релизер): Rip & Disc RedHotBlues
Наличие сканов в содержимом раздачи: да
Треклист:
CD: Mike & The Mechanics - Beggar On A Beach Of Gold
YEAR: 1995

01. A Beggar On A Beach Of Gold [0:04:35.15]
02. Another Cup Of Coffee [0:04:42.30]
03. You've Really Got A Hold On Me [0:03:29.05]
04. Mea Culpa [0:06:20.20]
05. Over My Shoulder [0:03:37.15]
06. Someone Always Hates Someone [0:03:42.70]
07. The Ghost Of Sex And You [0:06:24.15]
08. Web Of Lies [0:05:38.42]
09. Plain & Simple [0:03:58.65]
10. Something To Believe In [0:04:18.70]
11. A House Of Many Rooms [0:05:39.23]
12. I Believe (When I Fall In Love It Will Be Forever) [0:03:11.45]
13. Going, Going ...... Home [0:04:30.37]
Exact Audio Copy V1.0 beta 2 from 29. April 2011

Отчёт EAC об извлечении, выполненном 2. января 2013, 23:14

Mike & The Mechanics / Beggar On A Beach Of Gold

Дисковод: PLEXTOR DVDR PX-891SA Adapter: 3 ID: 0

Режим чтения : ДостоверностьИспользование точного потока : ДаОтключение кэша аудио : ДаИспользование указателей C2 : Нет

Коррекция смещения при чтении : 6Способность читать области Lead-in и Lead-out : НетЗаполнение пропущенных сэмплов тишиной : ДаУдаление блоков с тишиной в начале и конце : НетПри вычислениях CRC использовались нулевые сэмплы : ДаИнтерфейс : Установленный внешний ASPI-интерфейс

Выходной формат : Пользовательский кодировщикВыбранный битрейт : 896 kBit/sКачество : ВысокийДобавление ID3-тега : ДаУтилита сжатия : C:\Program Files\Exact Audio Copy\FLAC\FLAC.EXEДополнительные параметры : -6 -V -T "ARTIST=%artist%" -T "TITLE=%title%" -T "ALBUM=%albumtitle%" -T "DATE=%year%" -T "TRACKNUMBER=%tracknr%" -T "GENRE=%genre%" -T "COMMENT=%comment%" -T "BAND=%albuminterpret%" -T "COMPOSER=%composer%" %haslyrics%--tag-from-

TOC извлечённого CD

Трек | Старт | Длительность | Начальный сектор | Конечный сектор --------------------------------------------------------------------- 1 | 0:00.00 | 4:35.15 | 0 | 20639 2 | 4:35.15 | 4:42.30 | 20640 | 41819 3 | 9:17.45 | 3:29.05 | 41820 | 57499 4 | 12:46.50 | 6:20.20 | 57500 | 86019 5 | 19:06.70 | 3:37.15 | 86020 | 102309 6 | 22:44.10 | 3:42.70 | 102310 | 119029 7 | 26:27.05 | 6:24.15 | 119030 | 147844 8 | 32:51.20 | 5:38.42 | 147845 | 173236 9 | 38:29.62 | 3:58.65 | 173237 | 191151 10 | 42:28.52 | 4:18.70 | 191152 | 210571 11 | 46:47.47 | 5:39.23 | 210572 | 236019 12 | 52:26.70 | 3:11.45 | 236020 | 250389 13 | 55:38.40 | 4:30.37 | 250390 | 270676

Характеристики диапазона извлечения и сообщения об ошибках

Выбранный диапазон

Имя файла E:\MY RECORDS\ROCK lossless\Mike & The Mechanics - Beggar On A Beach Of Gold - 1995 - 60'11''\Mike & The Mechanics - Beggar On A Beach Of Gold.wav

Пиковый уровень 97.9 % Скорость извлечения 9.5 X Качество диапазона 100.0 % CRC теста 18DD46D9 CRC копии 18DD46D9 Копирование... OK

Ошибок не произошло

Конец отчёта

==== Контрольная сумма отчёта C5808C8B40A084B55B6C27CEB9F5F133556A5EC9004DF2110A96667AFDA06D58 ====
-----------------------

DON'T MODIFY THIS FILE

-----------------------

PERFORMER: auCDtect Task Manager, ver. 1.5.1RC4 build 1.5.1.5Copyright (c) 2008-2010 y-soft. All rights reservedhttp://y-soft.org

ANALYZER: auCDtect: CD records authenticity detector, version 0.8.2Copyright (c) 2004 Oleg Berngardt. All rights reserved.Copyright (c) 2004 Alexander Djourik. All rights reserved.

FILE: Mike & The Mechanics - Beggar On A Beach Of Gold.flac Size: 400498290 Hash: 6DC752626AC786B036CF1563A55B6D6C Accuracy: -m0 Conclusion: CDDA 99% Signature: 51F8AF489AB71883E7BD0DE1C9ABAAA2A3F55FAE


Трекер:  [ 04-Янв-2013 23:51 ]

  

Скачать .torrent

Размер .torrent файла 19 KB


Размер: 464 MB
Хэш (hash) релиза: 661cf60b9e62c96c1531e1dcf68ef04ee0d4cd4d

Еще никто не оставлял запись к записи скачать торрент Mike & The Mechanics - Beggar On A Beach Of Gold - 1995, FLAC . Будь первым!

!Обратная связь