Скачать через торрент музыку Anderson, Bruford, Wakeman, Howe - Brother Of Mine бесплатно без регистрации torrent

Если у вас наблюдаются проблемы со скриншотами, переходом по ссылками, скачиванием торрентов - проблемы в блокировщике рекламы AdBlock. #хорошегоДня!


Статистика раздачи
Размер:  125 MB   |    Зарегистрирован:  4 года 10 месяцев   |    .torrent скачан:  28 раз   |   
Раздают:  1  
   
Загрузка...
 
Автор Сообщение

Galfimbul

avatar Galfimbul


Anderson, Bruford, Wakeman, Howe / Brother Of Mine (CD Single)

Жанр: progressive & art-rock
Страна-производитель диска: Austria
Год издания: 1989
Издатель (лейбл): Arista
Номер по каталогу: 162 379
Страна: UK
Аудиокодек: FLAC (*.flac)
Тип рипа: image+.cue
Битрейт аудио: lossless
Продолжительность: 00:18:25
Источник (релизер): собственный диск
Наличие сканов в содержимом раздачи: да
Треклист:
1. Brother Of Mine 6:30
2. Themes 5:58
3. Vultures In The City 5:49
Exact Audio Copy V1.0 beta 3 from 29. August 2011

Отчёт EAC об извлечении, выполненном 30. декабря 2012, 15:23

Anderson, Bruford, Wakeman, Howe / Brother Of Mine (CD single)

Дисковод: TSSTcorpCD/DVDW SN-S082D Adapter: 1 ID: 0

Режим чтения : ДостоверностьИспользование точного потока : ДаОтключение кэша аудио : ДаИспользование указателей C2 : Нет

Коррекция смещения при чтении : 6Способность читать области Lead-in и Lead-out : НетЗаполнение пропущенных сэмплов тишиной : ДаУдаление блоков с тишиной в начале и конце : НетПри вычислениях CRC использовались нулевые сэмплы : ДаИнтерфейс : Установленный внешний ASPI-интерфейс

Выходной формат : Пользовательский кодировщикВыбранный битрейт : 896 kBit/sКачество : ВысокийДобавление ID3-тега : НетУтилита сжатия : D:\install\EAC_1.0_beta_3_Portable_Multilingual\App\EAC\FLAC\flac.exeДополнительные параметры : -6 -V -T "ARTIST=%artist%" -T "TITLE=%title%" -T "ALBUM=%albumtitle%" -T "DATE=%year%" -T "TRACKNUMBER=%tracknr%" -T "GENRE=%genre%" -T "COMMENT=%comment%" %hascover%--picture="%coverfile%"%hascover% %source% -o %dest%

TOC извлечённого CD

Трек | Старт | Длительность | Начальный сектор | Конечный сектор --------------------------------------------------------------------- 1 | 0:00.00 | 6:33.20 | 0 | 29494 2 | 6:33.20 | 6:00.00 | 29495 | 56494 3 | 12:33.20 | 5:52.47 | 56495 | 82941

Характеристики диапазона извлечения и сообщения об ошибках

Выбранный диапазон

Имя файла D:\Моя музыка\Anderson, Bruford, Wakeman, Howe - Brother Of Mine (CD single).wav

Пиковый уровень 97.7 % Скорость извлечения 2.2 X Качество диапазона 99.9 % CRC теста 150BDC16 CRC копии 150BDC16 Копирование... OK

Ошибок не произошло

AccurateRip: сводка

Трек 1 отсутствует в базе данныхТрек 2 отсутствует в базе данныхТрек 3 отсутствует в базе данных

Ни одного трека нет в базе AccurateRip

Конец отчёта

==== Контрольная сумма отчёта 4691C25F7E3AFFB795A39AE3885EF4A2A414A0C1209C18D0AC00A600C7FFB352 ====

------------------------------------------------------------
3-дюймовый CD-сингл, купленный еще до выхода большого альбома ABWH


Трекер:  [ 04-Янв-2013 23:51 ]

  

Скачать .torrent

Размер .torrent файла 40 KB


Размер: 125 MB
Хэш (hash) релиза: 4d648ec659152007c04620a89595700276b1c35e

Торренты, похожие на Anderson, Bruford, Wakeman, Howe - Brother Of Mine скачать торрент

Форум Название Автор Размер S L Добавлен
Rосk | Mеtаl | Аltеrnаtivе, Рunk, Indереndеnt (losslеss) ·· (Progressive Rock, Yes-related) Anderson, Bruford, Wakeman, Howe - ABWH + Brother of Mine [CDS] (Arista, West Germany) - 1989, FLAC (image+.cue), lossless Galfimbul 839302520800 MB 0 0 1297859347

15:29

16-Фев-11

Еще никто не оставлял запись к записи скачать торрент Anderson, Bruford, Wakeman, Howe - Brother Of Mine . Будь первым!

!Обратная связь