Скачать через торрент Ван-Пис: Фильм девятый Одним куском: История Чоппера One Piece: Episode of Chopper бесплатно Аниме Все серии на русском torrent

Если у вас наблюдаются проблемы со скриншотами, переходом по ссылками, скачиванием торрентов - проблемы в блокировщике рекламы AdBlock. #хорошегоДня!


Статистика раздачи
Размер:  2.08 GB   |    Зарегистрирован:  4 года 7 месяцев   |    .torrent скачан:  51 раз   |   
Раздают:  1  
   
Загрузка...
 
Автор Сообщение

Galfimbul

avatar Galfimbul


Ван-Пис: Фильм девятый Одним куском: История Чоппера
One Piece: Episode of Chopper

Год выпуска: 2008
[b]Страна:
Япония
Жанр: приключения, комедия, сёнэн
Продолжительность: 1 час 49 мин
Перевод: Субтитры + Озвучка
Русские субтитры: есть
Режиссер: Симидзу Ацудзи
По сюжету это укороченная версия "Drum Arc" саги "Baroque Works". Наши герои прибывают на остров Драм уже на Санни Го в компании Фрэнки и Нико Робин. А не хватающего в команде Чоппера они возьмут себе в команду только сейчас.
Качество: BDRip [720p][/b]
Энкод: RUELL
Скачать: СЭМПЛ
Тип видео: Без хардсаба
Формат: MKV
Видео: MPEG4 Video (H264) 1280x720 23.976fps 2 631 Kbps
Аудио:

Russian - Dolby AC3 48000Hz 6ch 448Kbps (ALLSTARS_&_Animereactor_Ru) - в составе контейнера
Russian - 48000Hz 160Kbps (Persona99) - в составе контейнера
Japanese - FLAC 48000Hz stereo 1536kbps - в составе контейнера
Субтитры:
Russian (от One-Piece.ru) - в составе контейнера
Format : MatroskaFormat version : Version 4 / Version 2File size : 2.08 GiBDuration : 1h 52mnOverall bit rate mode : VariableOverall bit rate : 2 631 KbpsMovie name : One Piece Movie 9 Bloom in Winter, Miracle Sakura [BDRip 1280x720 FLAC @ RUELL]Encoded date : UTC 2010-02-22 21:41:31Writing application : mkvmerge v5.9.0 ('On The Loose') built on Dec 9 2012 15:37:01Writing library : libebml v1.3.0 + libmatroska v1.4.0

VideoID : 1Format : AVCFormat/Info : Advanced Video CodecFormat profile : <a href="mailto:High@L4.1Format" class="postLink">High@L4.1Format</a> settings, CABAC : YesFormat settings, ReFrames : 8 framesMuxing mode : Header strippingCodec ID : V_MPEG4/ISO/AVCDuration : 1h 52mnWidth : 1 280 pixelsHeight : 720 pixelsDisplay aspect ratio : 16:9Frame rate : 23.976 fpsColor space : YUVChroma subsampling : 4:2:0Bit depth : 8 bitsScan type : ProgressiveWriting library : x264 core 116 r2074 2641b9eEncoding settings : cabac=1 / ref=8 / deblock=1:1:2 / analyse=0x3:0x133 / me=hex / subme=10 / psy=1 / psy_rd=1.00:0.00 / mixed_ref=1 / me_range=16 / chroma_me=1 / trellis=2 / 8x8dct=1 / cqm=0 / deadzone=21,11 / fast_pskip=1 / chroma_qp_offset=-2 / threads=12 / sliced_threads=0 / nr=0 / decimate=1 / interlaced=0 / bluray_compat=0 / constrained_intra=0 / bframes=5 / b_pyramid=2 / b_adapt=2 / b_bias=0 / direct=1 / weightb=1 / open_gop=0 / weightp=2 / keyint=240 / keyint_min=23 / scenecut=40 / intra_refresh=0 / rc_lookahead=40 / rc=crf / mbtree=1 / crf=21.0 / qcomp=0.60 / qpmin=16 / qpmax=29 / qpstep=4 / ip_ratio=1.40 / aq=1:1.00Language : JapaneseDefault : YesForced : No

Audio #1ID : 2Format : AC-3Format/Info : Audio Coding 3Mode extension : CM (complete main)Format settings, Endianness : BigMuxing mode : Header strippingCodec ID : A_AC3Duration : 1h 52mnBit rate mode : ConstantBit rate : 448 KbpsChannel(s) : 6 channelsChannel positions : Front: L C R, Side: L R, LFESampling rate : 48.0 KHzBit depth : 16 bitsCompression mode : LossyStream size : 362 MiB (17%)Title : ALLSTARS_&_Animereactor_RuLanguage : RussianDefault : NoForced : No

Audio #2ID : 3Format : MPEG AudioFormat version : Version 1Format profile : Layer 3Mode : Joint stereoMuxing mode : Header strippingCodec ID : A_MPEG/L3Codec ID/Hint : MP3Duration : 1h 52mnBit rate mode : ConstantBit rate : 160 KbpsChannel(s) : 2 channelsSampling rate : 48.0 KHzCompression mode : LossyStream size : 129 MiB (6%)Title : Persona99Language : RussianDefault : NoForced : No

Audio #3ID : 5Format : FLACFormat/Info : Free Lossless Audio CodecCodec ID : A_FLACDuration : 1h 52mnBit rate mode : VariableChannel(s) : 2 channelsSampling rate : 48.0 KHzBit depth : 16 bitsTitle : THD 5.1ch -> FLAC StereoWriting library : libFLAC 1.2.1 (UTC 2007-09-17)Language : JapaneseDefault : YesForced : No

TextID : 4Format : ASSCodec ID : S_TEXT/ASSCodec ID/Info : Advanced Sub Station AlphaCompression mode : LosslessLanguage : RussianDefault : YesForced : No


Трекер:  [ 03-Янв-2013 23:33 ]

  

Скачать .torrent

Размер .torrent файла 11 KB


Размер: 2.08 GB
Хэш (hash) релиза: 475d42fb311d6efe7bea5179cb6d6f50b6b35e36
Подписка на обновления:

Еще никто не оставлял запись к записи скачать торрент Ван-Пис: Фильм девятый Одним куском: История Чоппера One Piece: Episode of Chopper . Будь первым!

!Обратная связь