Скачать через торрент [iPad] Прощай, моя королева Les adieux a la reine бесплатно русская версия torrent активатор

Если у вас наблюдаются проблемы со скриншотами, переходом по ссылками, скачиванием торрентов - проблемы в блокировщике рекламы AdBlock. #хорошегоДня!


Статистика раздачи
Размер:  1.64 GB   |    Зарегистрирован:  4 года 9 месяцев   |    .torrent скачан:  36 раз   |   
Раздают:  1  
   
Загрузка...
 
Автор Сообщение

L


Прощай, моя королева / Les adieux a la reine

Год выпуска: 2012
Страна: Франция, Испания
Студия: GMT Productions, Les Films du Lendemain, France 3 Cinйma
Жанр: Драма, история
Продолжительность: 01:35:24
Рейтинг MPAA: R
Перевод: Профессиональный (многоголосый закадровый)
Оригинальная аудиодорожка: есть
Cубтитры: нет

Режиссёр: Бенуа Жако/ Benoît Jacquot
Сценарий: Бенуа Жако, Жиль Торан, Шанталь Тома
Продюссер: Жан-Пьер Герен, Кристина Ларсен, Педро Уриоль

В ролях: Дайан Крюгер, Леа Сейду, Виржини Ледуайен, Ксавье Бовуа, Ноэми Львовски, Мишель Робен, Жюли-Мари Парментье, Лолита Шамма, Владимир Консиньи, Доминик Реймон

Описание:
14 июля 1789 года толпы восставших взяли Бастилию, но блестящий Версаль еще пытался отстоять свое королевское великолепие на пути урагана… Экранизация одноименного романа Шанталь Тома, написанного в форме воспоминаний Сидони Лаборде — придворной чтицы Марии-Антуанетты о 14, 15 и 16 июля 1789 года. О тех днях, когда была разрушена Бастилия и учреждена Национальная гвардия, когда началась кровавая революция и залы роскошного дворца опустели, когда свита и слуги оставили свою Королеву. Спустя 21 год, уже в Вене Агата Сидони Лаборде оглядывается назад и вспоминает…

Доп. информация:


Качество исходника: BDRemux - Прощай, моя королева / Les adieux a la reine / 2012 / ПМ / Blu-Ray Remux (1080p)
Качество: BDRip
Разрешение: 1024х432
Формат: MP4
Видео: H.264, 2,40:1 , 2200kbit/s; 23.976fps

Аудио 1: Russian/Dub, AAC, 126kbit/s; 2ch; 48KHz
Аудио 2: French/Original, AAC, 126kbit/s; 2ch; 48KHz
XID: Apple:vendor_id:2012-571969contentID: 545130037Screenwriters: Бенуа Жако, Жиль Торан, Шанталь ТомаProducers: Жан-Пьер Герен, Кристина Ларсен, Педро УриольDirector: Бенуа ЖакоCast: Дайан Крюгер, Леа Сейду, Виржини Ледуайен, Ксавье Бовуа, Ноэми Львовски, Мишель Робен, Жюли-Мари Парментье, Лолита Шамма, Владимир Консиньи, Доминик РеймонRating: 5Long Description: Экранизация одноименного романа Шанталь Тома, написанного в форме воспоминаний Сидони Лаборде — придворной чтицы Марии-Антуанетты о 14, 15 и 16 июля 1789 года. О тех днях, когда была разрушена Бастилия и учреждена Национальная гвардия, когда началась кровавая революция и залы роскошного дворца опустели, когда свита и слуги оставили свою Королеву. Спустя 21 год, уже в Вене Агата Сидони Лаборде оглядывается назад и вспоминает…Description: 14 июля 1789 года толпы восставших взяли Бастилию, но блестящий Версаль еще пытался отстоять свое королевское великолепие на пути урагана…Release Date: 2012-02-09T15:00:00ZGenre: DramaArtist: Бенуа ЖакоName: Прощай, моя королева
GeneralComplete name : /Users/imac/HandBrake/Прощай, моя королева.2012.x264.BDRip.1024x.m4vFormat : MPEG-4Codec ID : M4VFile size : 1.64 GiBDuration : 1h 35mnOverall bit rate mode : VariableOverall bit rate : 2 455 KbpsMovie name : Прощай, моя королеваPerformer : Бенуа ЖакоGenre : DramaRecorded date : UTC 2012-02-09 15:00:00Encoded date : UTC 2013-01-02 21:15:38Tagged date : UTC 2013-01-02 21:16:08Cover : Yesdesc : 14 июля 1789 года толпы восставших взяли Бастилию, но блестящий Версаль еще пытался отстоять свое королевское великолепие на пути урагана…ldes : Экранизация одноименного романа Шанталь Тома, написанного в форме воспоминаний Сидони Лаборде — придворной чтицы Марии-Антуанетты о 14, 15 и 16 июля 1789 года. О тех днях, когда была разрушена Бастилия и учреждена Национальная гвардия, когда началась кровавая революция и залы роскошного дворца опустели, когда свита и слуги оставили свою Королеву. Спустя 21 год, уже в Вене Агата Сидони Лаборде оглядывается назад и вспоминает…stik : 9rtng : 0cnID : 545130037xid : Apple:vendor_id:2012-571969iTunEXTC : mpaa|R|400|iTunMOVI : <?xml version="1.0" encoding="UTF-8"?> / <!DOCTYPE plist PUBLIC "-//Apple//DTD PLIST 1.0//EN" "http://www.apple.com/DTDs/PropertyList-1.0.dtd"> / <plist version="1.0"> / <dict> / <key>cast</key> / <array> / <dict> / <key>name</key> / <string>Дайан Крюгер</string> / </dict> / <dict> / <key>name</key> / <string>Леа Сейду</string> / </dict> / <dict> / <key>name</key> / <string>Виржини Ледуайен</string> / </dict> / <dict> / <key>name</key> / <string>Ксавье Бовуа</string> / </dict> / <dict> / <key>name</key> / <string>Ноэми Львовски</string> / </dict> / <dict> / <key>name</key> / <string>Мишель Робен</string> / </dict> / <dict> / <key>name</key> / <string>Жюли-Мари Парментье</string> / </dict> / <dict> / <key>name</key> / <string>Лолита Шамма</string> / </dict> / <dict> / <key>name</key> / <string>Владимир Консиньи</string> / </dict> / <dict> / <key>name</key> / <string>Доминик Реймон</string> / </dict> / </array> / <key>directors</key> / <array> / <dict> / <key>name</key> / <string>Бенуа Жако</string> / </dict> / </array> / <key>producers</key> / <array> / <dict> / <key>name</key> / <string>Жан-Пьер Герен</string> / </dict> / <dict> / <key>name</key> / <string>Кристина Ларсен</string> / </dict> / <dict> / <key>name</key> / <string>Педро Уриоль</string> / </dict> / </array> / <key>screenwriters</key> / <array> / <dict> / <key>name</key> / <string>Бенуа Жако</string> / </dict> / <dict> / <key>name</key> / <string>Жиль Торан</string> / </dict> / <dict> / <key>name</key> / <string>Шанталь Тома</string> / </dict> / </array> / </dict> / </plist>

Video #1ID : 1Format : AVCFormat/Info : Advanced Video CodecFormat profile : <a href="mailto:High@L3.1Format" class="postLink">High@L3.1Format</a> settings, CABAC : YesFormat settings, ReFrames : 9 framesCodec ID : avc1Codec ID/Info : Advanced Video CodingDuration : 1h 35mnBit rate mode : VariableBit rate : 2 200 KbpsWidth : 1 024 pixelsHeight : 432 pixelsDisplay aspect ratio : 2.40:1Frame rate mode : VariableFrame rate : 23.976 fpsMinimum frame rate : 23.968 fpsMaximum frame rate : 23.981 fpsColor space : YUVChroma subsampling : 4:2:0Bit depth : 8 bitsScan type : ProgressiveBits/(Pixel*Frame) : 0.207Stream size : 1.46 GiB (89%)Writing library : x264 core 120Encoding settings : cabac=1 / ref=9 / deblock=1:0:0 / analyse=0x3:0x113 / me=umh / subme=9 / psy=1 / psy_rd=1.00:0.00 / mixed_ref=1 / me_range=32 / chroma_me=1 / trellis=1 / 8x8dct=1 / cqm=0 / deadzone=21,11 / fast_pskip=1 / chroma_qp_offset=-2 / threads=12 / sliced_threads=0 / nr=0 / decimate=1 / interlaced=0 / bluray_compat=0 / constrained_intra=0 / bframes=6 / b_pyramid=2 / b_adapt=2 / b_bias=0 / direct=1 / weightb=1 / open_gop=0 / weightp=2 / keyint=240 / keyint_min=24 / scenecut=40 / intra_refresh=0 / rc_lookahead=40 / rc=2pass / mbtree=1 / bitrate=2200 / ratetol=1.0 / qcomp=0.60 / qpmin=3 / qpmax=69 / qpstep=4 / cplxblur=20.0 / qblur=0.5 / ip_ratio=1.40 / aq=1:1.00Language : FrenchEncoded date : UTC 2013-01-02 21:15:38Tagged date : UTC 2013-01-02 21:15:55Color primaries : BT.709-5, BT.1361, IEC 61966-2-4, SMPTE RP177Transfer characteristics : BT.709-5, BT.1361Matrix coefficients : BT.709-5, BT.1361, IEC 61966-2-4 709, SMPTE RP177

Video #2ID : 5Format : JPEGCodec ID : jpegDuration : 1h 35mnBit rate mode : VariableBit rate : 596 bpsWidth : 640 pixelsHeight : 270 pixelsDisplay aspect ratio : 2.40:1Frame rate mode : VariableFrame rate : 0.002 fpsMinimum frame rate : 0.001 fpsMaximum frame rate : 0.003 fpsColor space : YUVChroma subsampling : 4:2:0Bit depth : 8 bitsCompression mode : LossyBits/(Pixel*Frame) : 1.725Stream size : 363 KiB (0%)Language : FrenchEncoded date : UTC 2013-01-02 21:16:08Tagged date : UTC 2013-01-02 21:16:08

Audio #1ID : 2Format : AACFormat/Info : Advanced Audio CodecFormat profile : LCCodec ID : 40Duration : 1h 35mnBit rate mode : VariableBit rate : 126 KbpsMaximum bit rate : 191 KbpsChannel(s) : 2 channelsChannel positions : Front: L RSampling rate : 48.0 KHzCompression mode : LossyStream size : 85.7 MiB (5%)Language : RussianEncoded date : UTC 2013-01-02 21:15:38Tagged date : UTC 2013-01-02 21:16:00

Audio #2ID : 3Format : AACFormat/Info : Advanced Audio CodecFormat profile : LCCodec ID : 40Duration : 1h 35mnBit rate mode : VariableBit rate : 126 KbpsMaximum bit rate : 207 KbpsChannel(s) : 2 channelsChannel positions : Front: L RSampling rate : 48.0 KHzCompression mode : LossyStream size : 85.8 MiB (5%)Language : FrenchEncoded date : UTC 2013-01-02 21:15:39Tagged date : UTC 2013-01-02 21:16:04

TextID : 4Format : Apple textCodec ID : textDuration : 1h 35mnBit rate mode : ConstantBit rate : 0 bpsStream size : 240 Bytes (0%)Language : FrenchEncoded date : UTC 2013-01-02 21:16:04Tagged date : UTC 2013-01-02 21:16:04

Menu00:00:00.000 : Chapter 0100:09:27.525 : Chapter 0200:20:10.959 : Chapter 0300:29:23.344 : Chapter 0400:36:05.203 : Chapter 0500:47:29.636 : Chapter 0600:59:02.536 : Chapter 0701:08:38.986 : Chapter 0801:14:37.719 : Chapter 0901:24:16.297 : Chapter 10
x264 [info]: frame I:905 Avg QP:13.38 size: 75858 PSNR Mean Y:49.70 U:53.31 V:53.12 Avg:50.54 Global:49.89x264 [info]: frame P:34941 Avg QP:16.22 size: 24587 PSNR Mean Y:48.08 U:52.01 V:51.67 Avg:48.88 Global:47.57x264 [info]: frame B:101370 Avg QP:19.12 size: 6350 PSNR Mean Y:45.53 U:50.34 V:50.13 Avg:46.52 Global:45.96x264 [info]: consecutive B-frames: 3.3% 3.7% 7.9% 46.6% 14.9% 13.2% 10.4%x264 [info]: mb I I16..4: 13.1% 59.9% 27.1%x264 [info]: mb P I16..4: 2.4% 8.4% 2.7% P16..4: 33.4% 25.5% 15.2% 0.0% 0.0% skip:12.3%x264 [info]: mb B I16..4: 0.3% 0.8% 0.3% B16..8: 39.6% 10.9% 3.0% direct: 5.3% skip:39.7% L0:45.1% L1:43.5% BI:11.4%x264 [info]: 8x8 transform intra:60.5% inter:66.2%x264 [info]: coded y,uvDC,uvAC intra: 77.3% 79.5% 58.6% inter: 27.6% 27.0% 5.0%x264 [info]: i16 v,h,dc,p: 58% 12% 7% 24%x264 [info]: i8 v,h,dc,ddl,ddr,vr,hd,vl,hu: 13% 7% 7% 9% 13% 14% 12% 13% 12%x264 [info]: i4 v,h,dc,ddl,ddr,vr,hd,vl,hu: 14% 6% 4% 9% 14% 15% 13% 12% 12%x264 [info]: i8c dc,h,v,p: 43% 21% 23% 13%x264 [info]: Weighted P-Frames: Y:12.7% UV:7.0%x264 [info]: ref P L0: 46.5% 12.3% 15.0% 7.0% 5.6% 4.4% 3.8% 2.5% 2.4% 0.6% 0.0%x264 [info]: ref B L0: 74.8% 10.6% 5.4% 3.1% 2.4% 2.0% 1.2% 0.5%x264 [info]: ref B L1: 92.9% 7.1%x264 [info]: SSIM Mean Y:0.9863130 (18.637db)x264 [info]: PSNR Mean Y:46.207 U:50.787 V:50.544 Avg:47.148 Global:46.339 kb/s:2196.62


Трекер:  [ 04-Янв-2013 18:53 ]

  

Скачать .torrent

Размер .torrent файла 17 KB


Размер: 1.64 GB
Хэш (hash) релиза: 5a2ac9c298a7be68c5360e9dba3741343601f230

Еще никто не оставлял запись к записи скачать торрент [iPad] Прощай, моя королева Les adieux a la reine . Будь первым!

!Обратная связь