Скачать через торрент музыку Strider бесплатно без регистрации torrent

Если у вас наблюдаются проблемы со скриншотами, переходом по ссылками, скачиванием торрентов - проблемы в блокировщике рекламы AdBlock. #хорошегоДня!


Статистика раздачи
Размер:  235 MB   |    Зарегистрирован:  4 года 10 месяцев   |    .torrent скачан:  25 раз   |   
Раздают:  1  
   
Загрузка...
 
Автор Сообщение

Galfimbul

avatar Galfimbul


Strider (Jack Starr) / Strider

Жанр: hard rock
Страна-производитель диска: Austria
Год издания: 1991
Издатель (лейбл): Shark
Номер по каталогу: SHARK 020
Страна: USA
Аудиокодек: APE (*.ape)
Тип рипа: image+.cue
Битрейт аудио: lossless
Источник (релизер): свой рипъ
Наличие сканов в содержимом раздачи: нет
Треклист:
01. Down On Love
02. Cherry Red
03. It's Not Over
04. Get Together
05. Livin' In The Cities
06. Dancing On The Edge
07. Prove Your Love
08. Mr. President
09. Under The Influence
Exact Audio Copy V0.99 prebeta 4 from 23. January 2008

EAC extraction logfile from 2. January 2013, 20:22

Strider / Strider

Used drive : PIONEER DVD-RW DVR-212 Adapter: 5 ID: 0

Read mode : SecureUtilize accurate stream : YesDefeat audio cache : YesMake use of C2 pointers : No

Read offset correction : 48Overread into Lead-In and Lead-Out : NoFill up missing offset samples with silence : YesDelete leading and trailing silent blocks : NoNull samples used in CRC calculations : YesUsed interface : Native Win32 interface for Win NT & 2000

Used output format : Internal WAV RoutinesSample format : 44.100 Hz; 16 Bit; Stereo

TOC of the extracted CD

Track | Start | Length | Start sector | End sector --------------------------------------------------------- 1 | 0:00.00 | 4:29.65 | 0 | 20239 2 | 4:29.65 | 3:30.25 | 20240 | 36014 3 | 8:00.15 | 4:02.42 | 36015 | 54206 4 | 12:02.57 | 4:14.58 | 54207 | 73314 5 | 16:17.40 | 4:03.10 | 73315 | 91549 6 | 20:20.50 | 4:08.05 | 91550 | 110154 7 | 24:28.55 | 6:06.25 | 110155 | 137629 8 | 30:35.05 | 5:54.20 | 137630 | 164199 9 | 36:29.25 | 2:19.27 | 164200 | 174651

Range status and errors

Selected range

Filename D:\temp\Strider - Strider.wav

Peak level 99.2 % Range quality 99.9 % Copy CRC 2AF1C10E Copy OK

No errors occurred

AccurateRip summary

Track 1 accurately ripped (confidence 1) [AFA7BEC2]Track 2 accurately ripped (confidence 1) [B8A05C5D]Track 3 accurately ripped (confidence 1) [41B4A649]Track 4 accurately ripped (confidence 1) [36E60514]Track 5 cannot be verified as accurate (confidence 1) [E5503CC6], AccurateRip returned [3F341964]Track 6 accurately ripped (confidence 1) [BF82D67B]Track 7 accurately ripped (confidence 1) [47D0F131]Track 8 accurately ripped (confidence 1) [51DF8A30]Track 9 accurately ripped (confidence 1) [D4535558]

8 track(s) accurately ripped 1 track(s) could not be verified as accurate

Some tracks could not be verified as accurate

End of status report


Трекер:  [ 02-Янв-2013 22:01 ]

  

Скачать .torrent

Размер .torrent файла 37 KB


Размер: 235 MB
Хэш (hash) релиза: dedbb317efef1a9d35cec4bb70205937bc6f773f

Торренты, похожие на Strider скачать торрент

Форум Название Автор Размер S L Добавлен
Электронная музыка (lossless) ·· (IDM, Techno, Acid) Richard David James | Aphex Twin, AFX, Brad Strider, Caustic Window, Power-Pill, Polygon Window, Universal Indicator, GAK, Strider. B., Mike & Rich, The Tuss — 69 releases + | FLAC (tracks) L 1615306651715.04 GB 0 0 1313593890

18:11

17-Авг-11

Rосk | Mеtаl | Аltеrnаtivе, Рunk, Indереndеnt (mр3) ·· (Heavy Metal, Power Metal) Strider - Bioluminescent - 2017, MP3, 320 kbps Galfimbul 9887508794 MB 0 0 1497814638

22:37

18-Июн-17

Еще никто не оставлял запись к записи скачать торрент Strider . Будь первым!

!Обратная связь