Скачать через торрент музыку Sven Larsson бесплатно без регистрации torrent

Если у вас наблюдаются проблемы со скриншотами, переходом по ссылками, скачиванием торрентов - проблемы в блокировщике рекламы AdBlock. #хорошегоДня!


Статистика раздачи
Размер:  750 MB   |    Зарегистрирован:  4 года 9 месяцев   |    .torrent скачан:  22 раза   |   
Раздают:  1  
   
Загрузка...
 
Автор Сообщение

Galfimbul

avatar Galfimbul


SVEN LARSSON



Sunlight And Shadow (2010) / Bad Mad Man (2012)Жанр: Westcoast/AOR
Страна-производитель дисков: Germany
Год издания: 2010-2012
Издатель (лейбл): Avenue Of Allies
Страна: Sweden
Аудиокодек: FLAC (*.flac)
Тип рипа: image+.cue
Битрейт аудио: lossless
Общая продолжительность: 1 час 36 минут
Источник (релизер): собственные рипы
Наличие сканов в содержимом раздачи: да
Когда Свен начал играть на гитаре в начале 80-х он слушал широкий спектр рок-музыки, начиная от британских арт-рокеров Queen, 10 CC, ELO и Genesis до американского весткоста как Тото и Steely Dan, а также Hard'n'Heavy икон Van Halen и Iron Maiden. И по сей день среди его любимых является также влиятельный американский автор песен и певица Джони Митчелл. На протяжении многих лет Свен стал известен на шведской музыкальной сцене в качестве гитариста с удивительным сочетанием технических навыков, чувств и эмоций.
Свен Ларссон начал свою музыкальную карьеру как гитарист еще в конце 90-х годов, с тех пор он записал четыре студийных альбома с шведскими проггерами Galleon и два с AOR-Prog группой Xinema. Но он более известен по работе со шведскими мелодик-рокерами Street Talk. Свен присоединился к основному композитору и клавишнику группы Фредрику Бергу (Bloodbound) и певецу Горану Эдману (Yngwie Malmsteen, Brazen Abbot) в 2000 году для записи второго альбома "Transition" . С тех пор он записал с ними в общей сложности еще три диска, в том числе один сборник.
Когда его вышеупомянутые группы отошли на задний план от записи, Свен начал работу над своим первым сольным альбомом. Пластинка под названием "Sunlight And Shadow", предствляющая собой различные музыкальные идеи отличные от того что он ранее как участник групп, была выпущена весной 2010 года на Avenue of Allies. Это хорошее разнообразие музыкальных стилей, начиная от Melodic Rock и AOR до Westcoast и Fusion, и хотя влияние знаменитых гитаристов как Jimi Hendrix, Jeff Beck, Steve Morse, Eric Johnson, Steve Lukather and Michael Landau здесь можно услышать, "Sunlight and Shadow" был далек от альбома гитариста который хочет вырваться из границ своего диапазона. Игра Свена здесь основана на песнях и мелодиях, а на восьми треках доказал что он и хороший вокалист.
Два года минуло с его сольный дебюта, в течение которого Свен работал над песнями для своего второго альбома и стал востребованным сессионным музыкантом для громких AOR проектов как Lionville, Coastland Ride, Sapphire Eyes и Charming Grace.
Весной 2012 года Свен завершил работу над "Bad Mad Man", вторым сольным альбомом. Как и на прошлом диске здесь его коллеги из Street Talk - Бьерн Лодмарк (бас-гитара) и Кристиан Йоханссон (барабаны) приняли участие на всех треках альбома, Фредрик Берг (клавишные) помог с записью инструментала ”Welcome To My Island”, а великолепного Горана Эдмана можно услышать на качевой "Sin City" и атмосферной "Missing Link".
Вокалист Томас Эрикссон пел уже на первом сольнике Свена, в то время как Андерс Ахлунд (Saigon, Lotus) дебютирует на вокале в двух песнях, а из лагеря Galleon посетили с визитом Ульф Петтерссон и Горан Форс . “Bad Mad Man" это разножанровые хорошо написаные рок-песни, с прекрасным чувством мелодий и гармоний и демонстрации отличных навыков Свена и его коллег-музыкантов.
Продолжительность: 45:30

Треклист:
1. Sunlight And Shadows - 4:36
2. Eagle 3:19
3. This Is Not the Right Time - 4:12
4. Daydreamer - 3:54
5. Fly On By - 4:28
6. Tube (Instrumental) - 2:26
7. Bastard - 3:56
8. It's Over - 4:35
9. I'll Turn My Back - 4:39
10. The Neighbour - 5:33
11. Candy (Instrumental) - 3:46

Состав группы:
Sven Larsson - electric & acoustic guitars, lead & backing vocals
Christian Johansson (Street Talk) - drums
Björn Lodmark (Street Talk) - bass on tracks 3,5,7,8,10,11
Per Lindström - bass on tracks 1,2,4,9
Thomas Eriksson - lead vocals on tracks 9 & 10
Fredrik Bergh (Street Talk) - keyboards on track 1
Sören Karlsson - keyboards on tracks 2,4,6,11
Pelle Larsson - keyboards on tracks 3,5,7,8,9,10,11
Lasse Vänngård - percussion & handclap on tracks 3,4,5,7
Stefan Zell (Wolverine) - backing vocals
Exact Audio Copy V1.0 beta 3 from 29. August 2011

EAC extraction logfile from 2. January 2013, 13:52

Sven Larsson / Sunlight And Shadow

Used drive : SlimtypeDVD A DS8A5SH Adapter: 0 ID: 1

Read mode : SecureUtilize accurate stream : YesDefeat audio cache : YesMake use of C2 pointers : No

Read offset correction : 6Overread into Lead-In and Lead-Out : NoFill up missing offset samples with silence : YesDelete leading and trailing silent blocks : NoNull samples used in CRC calculations : YesUsed interface : Native Win32 interface for Win NT & 2000

Used output format : User Defined EncoderSelected bitrate : 320 kBit/sQuality : HighAdd ID3 tag : NoCommand line compressor : C:\Program Files (x86)\Exact Audio Copy\Flac\flac.exeAdditional command line options : -V -8 -T "Date=%year%" -T "Genre=%genre%" %source%

TOC of the extracted CD

Track | Start | Length | Start sector | End sector --------------------------------------------------------- 1 | 0:00.00 | 4:36.59 | 0 | 20758 2 | 4:36.59 | 3:19.46 | 20759 | 35729 3 | 7:56.30 | 4:12.15 | 35730 | 54644 4 | 12:08.45 | 3:54.14 | 54645 | 72208 5 | 16:02.59 | 4:28.67 | 72209 | 92375 6 | 20:31.51 | 2:26.53 | 92376 | 103378 7 | 22:58.29 | 3:56.50 | 103379 | 121128 8 | 26:55.04 | 4:35.42 | 121129 | 141795 9 | 31:30.46 | 4:39.45 | 141796 | 162765 10 | 36:10.16 | 5:33.20 | 162766 | 187760 11 | 41:43.36 | 3:46.71 | 187761 | 204781

Range status and errors

Selected range

Filename D:\My Music\Sven Larsson - 2010 Sunlight And Shadow\Sven Larsson - Sunlight And Shadow.wav

Peak level 98.8 % Extraction speed 4.5 X Range quality 100.0 % Test CRC DB5751C1 Copy CRC DB5751C1 Copy OK

No errors occurred

AccurateRip summary

Track 1 accurately ripped (confidence 1) [34614A10] (AR v2)Track 2 accurately ripped (confidence 1) [7208689B] (AR v2)Track 3 accurately ripped (confidence 1) [B692F13A] (AR v2)Track 4 accurately ripped (confidence 1) [7D892842] (AR v2)Track 5 accurately ripped (confidence 1) [8D6CA605] (AR v2)Track 6 accurately ripped (confidence 1) [530DA2AA] (AR v2)Track 7 accurately ripped (confidence 1) [C48910E5] (AR v2)Track 8 accurately ripped (confidence 1) [2EF95BCA] (AR v2)Track 9 accurately ripped (confidence 1) [2C3410FD] (AR v2)Track 10 accurately ripped (confidence 1) [B702AE75] (AR v2)Track 11 accurately ripped (confidence 1) [81CC4E52] (AR v2)

All tracks accurately ripped

End of status report

==== Log checksum 457BC7AA6332A0C4713C79814A3549B0BFF00191650699A574E2E1B00D35993C ====
Продолжительность: 50:55

Треклист:
1. Dance The Night Away - 3:14
2. Sin City - 3:16
3. How Could It Come To This - 4:43
4. Bad Mad Man - 5:57
5. Forever You & Me - 3:11
6. Missing Link - 6:59
7. Green Unit (Instrumental) - 5:33
8. Look The Ghost In The Eyes - 3:13
9. The House Upon The Hill - 4:13
10. Castle Of Mine - 4:41
11. Welcome To My Island (Instrumental) - 5.59

Состав группы:
Sven Larsson - all guitars, lead vocals on tracks 1,3,5,9
Christian Johansson (Street Talk) - drums
Björn Lodmark (Street Talk) - bass
Göran Edman(Street Talk) - lead vocals on tracks 2,6
Anders Åhlund - lead vocals on tracks 8,10
Thomas Eriksson - lead vocals on track 4
Fredrik Bergh (Street Talk) - keyboards on track 11
Sören Karlsson - keyboards on tracks 5,6,7,8,10
Daniel Karlsson - keyboards on tracks 3,4
Ulf Pettersson (Galleon) - keyboards on tracks 1,2
Pär Forsberg - organ on tracks 1,6,7,10
Göran Fors (Galleon) - taurus pedals on tracks 2,3,4,7
P-O Larsson - steel guitar, organ, backing vocals on tracks 1,5,9,11
Ove Lundström - backing vocals, keyboards, bass on tracks 3,4,9
Torbjörn Karlsson - sax, flute on tracks 4,8,10
Exact Audio Copy V1.0 beta 3 from 29. August 2011

EAC extraction logfile from 2. January 2013, 14:53

Sven Larsson / Bad Mad Man

Used drive : SlimtypeDVD A DS8A5SH Adapter: 0 ID: 1

Read mode : SecureUtilize accurate stream : YesDefeat audio cache : YesMake use of C2 pointers : No

Read offset correction : 6Overread into Lead-In and Lead-Out : NoFill up missing offset samples with silence : YesDelete leading and trailing silent blocks : NoNull samples used in CRC calculations : YesUsed interface : Native Win32 interface for Win NT & 2000

Used output format : User Defined EncoderSelected bitrate : 320 kBit/sQuality : HighAdd ID3 tag : NoCommand line compressor : C:\Program Files (x86)\Exact Audio Copy\Flac\flac.exeAdditional command line options : -V -8 -T "Date=%year%" -T "Genre=%genre%" %source%

TOC of the extracted CD

Track | Start | Length | Start sector | End sector --------------------------------------------------------- 1 | 0:00.00 | 3:13.33 | 0 | 14507 2 | 3:13.33 | 3:15.71 | 14508 | 29203 3 | 6:29.29 | 4:42.67 | 29204 | 50420 4 | 11:12.21 | 5:56.50 | 50421 | 77170 5 | 17:08.71 | 3:10.22 | 77171 | 91442 6 | 20:19.18 | 6:58.65 | 91443 | 122857 7 | 27:18.08 | 5:32.29 | 122858 | 147786 8 | 32:50.37 | 3:12.63 | 147787 | 162249 9 | 36:03.25 | 4:12.42 | 162250 | 181191 10 | 40:15.67 | 4:41.17 | 181192 | 202283 11 | 44:57.09 | 5:58.52 | 202284 | 229185

Range status and errors

Selected range

Filename D:\My Music\Sven Larsson - 2012 Bad Mad Man\Sven Larsson - Bad Mad Man.wav

Peak level 98.8 % Extraction speed 1.8 X Range quality 100.0 % Test CRC 1DC8DD38 Copy CRC 1DC8DD38 Copy OK

No errors occurred

AccurateRip summary

Track 1 not present in databaseTrack 2 not present in databaseTrack 3 not present in databaseTrack 4 not present in databaseTrack 5 not present in databaseTrack 6 not present in databaseTrack 7 not present in databaseTrack 8 not present in databaseTrack 9 not present in databaseTrack 10 not present in databaseTrack 11 not present in database

None of the tracks are present in the AccurateRip database

End of status report

==== Log checksum 6092990300F8E763B75BBC7C6EC0DDDC054655E3DC90A95DC61A0B41725359D3 ====


Трекер:  [ 02-Янв-2013 22:01 ]

  

Скачать .torrent

Размер .torrent файла 17 KB


Размер: 750 MB
Хэш (hash) релиза: abbaf26f890923706f35c9e17a3e8f66ff68b5a4

Еще никто не оставлял запись к записи скачать торрент Sven Larsson . Будь первым!

!Обратная связь