Скачать через торрент музыку Sassafras - Wheelin N Dealin- Riding High - 2008, FLAC бесплатно без регистрации torrent

Если у вас наблюдаются проблемы со скриншотами, переходом по ссылками, скачиванием торрентов - проблемы в блокировщике рекламы AdBlock. #хорошегоДня!


Статистика раздачи
Размер:  532 MB   |    Зарегистрирован:  4 года 7 месяцев   |    .torrent скачан:  16 раз   |   
Раздают:  1  
   
Загрузка...
 
Автор Сообщение

Galfimbul

avatar Galfimbul


Sassafras / Wheelin' N' Dealin'- Riding High

Жанр: Rock
Страна-производитель диска: Printed in Australia
Год издания: 2008
Издатель (лейбл): 2000 Fruitgum Corp
Номер по каталогу: FRCD 110201/02
Страна: UK
Аудиокодек: FLAC (*.flac)
Тип рипа: tracks+.cue
Битрейт аудио: lossless
Продолжительность: 01:21:18
Источник (релизер): Ослосеть
Наличие сканов в содержимом раздачи: да
01. Wheelin' 'N' Dealin' 5:26
02. Highway Skies 5:09
03. Hamburg Song 5:49
04. Moonshine 3:48
05. Peanut Man 2:44
06. Box Car Hobo 4:56
07. Ohio 7:42
08. Soul Destroyer 3:38
01. Riding High 4:33
02. Nothin' to Lose 4:18
03. Bad Blood 5:22
04. See Through a Mountain 5:51
05. New York Collapse 6:02
06. Small Town Talk 3:46
07. Long Shot Lover 3:43
08. Band Refuse to Play 4:11
09. Keep Rock'n'roll (Like It Used to Be) 4:21
Exact Audio Copy V0.99 prebeta 4 from 23. January 2008

EAC extraction logfile from 12. August 2011, 2:00

Sassafras / Wheelin' 'N' Dealin'

Used drive : ASUS DRW-24B3ST Adapter: 2 ID: 0

Read mode : Secure
Utilize accurate stream : Yes
Defeat audio cache : Yes
Make use of C2 pointers : No

Read offset correction : 6
Overread into Lead-In and Lead-Out : No
Fill up missing offset samples with silence : Yes
Delete leading and trailing silent blocks : No
Null samples used in CRC calculations : Yes
Used interface : Native Win32 interface for Win NT & 2000
Gap handling : Appended to previous track

Used output format : Internal WAV Routines
Sample format : 44.100 Hz; 16 Bit; Stereo

TOC of the extracted CD

Track | Start | Length | Start sector | End sector
---------------------------------------------------------
1 | 0:00.00 | 5:25.35 | 0 | 24409
2 | 5:25.35 | 5:09.32 | 24410 | 47616
3 | 10:34.67 | 5:49.57 | 47617 | 73848
4 | 16:24.49 | 3:48.31 | 73849 | 90979
5 | 20:13.05 | 2:44.48 | 90980 | 103327
6 | 22:57.53 | 4:56.30 | 103328 | 125557
7 | 27:54.08 | 7:42.62 | 125558 | 160269
8 | 35:36.70 | 3:38.19 | 160270 | 176638

Track 1

Filename C:\Sassafras - Wheelin' 'N' Dealin' (1975) [FLAC]\01 - Wheelin' 'N' Dealin'.wav

Pre-gap length 0:00:02.00

Peak level 100.0 %
Track quality 100.0 %
Test CRC BF051010
Copy CRC BF051010
Accurately ripped (confidence 2) [000B6E5D]
Copy OK

Track 2

Filename C:\Sassafras - Wheelin' 'N' Dealin' (1975) [FLAC]\02 - Highway Skies.wav

Peak level 100.0 %
Track quality 100.0 %
Test CRC 07F41559
Copy CRC 07F41559
Accurately ripped (confidence 2) [193FF66E]
Copy OK

Track 3

Filename C:\Sassafras - Wheelin' 'N' Dealin' (1975) [FLAC]\03 - Hamburg Song.wav

Peak level 97.3 %
Track quality 100.0 %
Test CRC 238D2AC7
Copy CRC 238D2AC7
Accurately ripped (confidence 2) [99BE0EB0]
Copy OK

Track 4

Filename C:\Sassafras - Wheelin' 'N' Dealin' (1975) [FLAC]\04 - Moonshine.wav

Peak level 100.0 %
Track quality 100.0 %
Test CRC D440B847
Copy CRC D440B847
Accurately ripped (confidence 2) [98BB5C34]
Copy OK

Track 5

Filename C:\Sassafras - Wheelin' 'N' Dealin' (1975) [FLAC]\05 - Peanut Man.wav

Peak level 100.0 %
Track quality 100.0 %
Test CRC D4F81314
Copy CRC D4F81314
Accurately ripped (confidence 2) [A9840472]
Copy OK

Track 6

Filename C:\Sassafras - Wheelin' 'N' Dealin' (1975) [FLAC]\06 - Box Car Hobo.wav

Peak level 100.0 %
Track quality 100.0 %
Test CRC 4D43CFB7
Copy CRC 4D43CFB7
Accurately ripped (confidence 2) [65355B40]
Copy OK

Track 7

Filename C:\Sassafras - Wheelin' 'N' Dealin' (1975) [FLAC]\07 - Ohio.wav

Peak level 100.0 %
Track quality 100.0 %
Test CRC 422EC201
Copy CRC 422EC201
Accurately ripped (confidence 2) [DD117D3E]
Copy OK

Track 8

Filename C:\Sassafras - Wheelin' 'N' Dealin' (1975) [FLAC]\08 - Soul Destroyer.wav

Peak level 100.0 %
Track quality 100.0 %
Test CRC 2482348E
Copy CRC 2482348E
Accurately ripped (confidence 2) [E5C1A411]
Copy OK

All tracks accurately ripped

No errors occurred

End of status report
Exact Audio Copy V0.99 prebeta 4 from 23. January 2008

EAC extraction logfile from 12. August 2011, 1:44

Sassafras / Riding High

Used drive : ASUS DRW-24B3ST Adapter: 2 ID: 0

Read mode : Secure
Utilize accurate stream : Yes
Defeat audio cache : Yes
Make use of C2 pointers : No

Read offset correction : 6
Overread into Lead-In and Lead-Out : No
Fill up missing offset samples with silence : Yes
Delete leading and trailing silent blocks : No
Null samples used in CRC calculations : Yes
Used interface : Native Win32 interface for Win NT & 2000
Gap handling : Appended to previous track

Used output format : Internal WAV Routines
Sample format : 44.100 Hz; 16 Bit; Stereo

TOC of the extracted CD

Track | Start | Length | Start sector | End sector
---------------------------------------------------------
1 | 0:00.00 | 4:33.15 | 0 | 20489
2 | 4:33.15 | 4:18.41 | 20490 | 39880
3 | 8:51.56 | 5:22.32 | 39881 | 64062
4 | 14:14.13 | 5:51.18 | 64063 | 90405
5 | 20:05.31 | 6:02.00 | 90406 | 117555
6 | 26:07.31 | 3:46.01 | 117556 | 134506
7 | 29:53.32 | 3:43.35 | 134507 | 151266
8 | 33:36.67 | 4:11.45 | 151267 | 170136
9 | 37:48.37 | 4:21.46 | 170137 | 189757

Track 1

Filename C:\Sassafras - Riding High (1976) [FLAC]\01 - Riding High.wav

Pre-gap length 0:00:02.00

Peak level 100.0 %
Track quality 100.0 %
Test CRC 311FE51B
Copy CRC 311FE51B
Accurately ripped (confidence 2) [F6462277]
Copy OK

Track 2

Filename C:\Sassafras - Riding High (1976) [FLAC]\02 - Nothin' To Lose.wav

Peak level 100.0 %
Track quality 100.0 %
Test CRC 3A5C84C2
Copy CRC 3A5C84C2
Accurately ripped (confidence 2) [86634709]
Copy OK

Track 3

Filename C:\Sassafras - Riding High (1976) [FLAC]\03 - Bad Blood.wav

Peak level 100.0 %
Track quality 99.9 %
Test CRC 1B497847
Copy CRC 1B497847
Accurately ripped (confidence 2) [9DB9BF1C]
Copy OK

Track 4

Filename C:\Sassafras - Riding High (1976) [FLAC]\04 - See Through A Mountain.wav

Peak level 100.0 %
Track quality 100.0 %
Test CRC 9DFAD160
Copy CRC 9DFAD160
Accurately ripped (confidence 2) [63246105]
Copy OK

Track 5

Filename C:\Sassafras - Riding High (1976) [FLAC]\05 - New York Collapse.wav

Peak level 100.0 %
Track quality 100.0 %
Test CRC 855BCE57
Copy CRC 855BCE57
Accurately ripped (confidence 2) [47A635A9]
Copy OK

Track 6

Filename C:\Sassafras - Riding High (1976) [FLAC]\06 - Small Town Talk.wav

Peak level 100.0 %
Track quality 100.0 %
Test CRC 69E5174E
Copy CRC 69E5174E
Accurately ripped (confidence 2) [723F502A]
Copy OK

Track 7

Filename C:\Sassafras - Riding High (1976) [FLAC]\07 - Long Shot Lover.wav

Peak level 100.0 %
Track quality 99.9 %
Test CRC CB005423
Copy CRC CB005423
Accurately ripped (confidence 2) [4E2BF309]
Copy OK

Track 8

Filename C:\Sassafras - Riding High (1976) [FLAC]\08 - The Band Refuse To Play.wav

Peak level 100.0 %
Track quality 100.0 %
Test CRC 8F1AA076
Copy CRC 8F1AA076
Accurately ripped (confidence 2) [0EA77D05]
Copy OK

Track 9

Filename C:\Sassafras - Riding High (1976) [FLAC]\09 - Keep Rock 'n' Roll (Like It Used To Be).wav

Peak level 100.0 %
Track quality 100.0 %
Test CRC 05180583
Copy CRC 05180583
Accurately ripped (confidence 2) [90365E4C]
Copy OK

All tracks accurately ripped

No errors occurred

End of status report
REM GENRE Rock
REM DATE 1975
REM DISCID 73093308
REM COMMENT "ExactAudioCopy v0.99pb4"
PERFORMER "Sassafras"
TITLE "Wheelin' 'N' Dealin'"
FILE "01 - Wheelin' 'N' Dealin'.wav" WAVE
TRACK 01 AUDIO
TITLE "Wheelin' 'N' Dealin'"
PERFORMER "Sassafras"
INDEX 01 00:00:00
FILE "02 - Highway Skies.wav" WAVE
TRACK 02 AUDIO
TITLE "Highway Skies"
PERFORMER "Sassafras"
INDEX 01 00:00:00
FILE "03 - Hamburg Song.wav" WAVE
TRACK 03 AUDIO
TITLE "Hamburg Song"
PERFORMER "Sassafras"
INDEX 01 00:00:00
FILE "04 - Moonshine.wav" WAVE
TRACK 04 AUDIO
TITLE "Moonshine"
PERFORMER "Sassafras"
INDEX 01 00:00:00
FILE "05 - Peanut Man.wav" WAVE
TRACK 05 AUDIO
TITLE "Peanut Man"
PERFORMER "Sassafras"
INDEX 01 00:00:00
FILE "06 - Box Car Hobo.wav" WAVE
TRACK 06 AUDIO
TITLE "Box Car Hobo"
PERFORMER "Sassafras"
INDEX 01 00:00:00
FILE "07 - Ohio.wav" WAVE
TRACK 07 AUDIO
TITLE "Ohio"
PERFORMER "Sassafras"
INDEX 01 00:00:00
FILE "08 - Soul Destroyer.wav" WAVE
TRACK 08 AUDIO
TITLE "Soul Destroyer"
PERFORMER "Sassafras"
INDEX 01 00:00:00
REM GENRE Rock
REM DATE 1976
REM DISCID 7909E209
REM COMMENT "ExactAudioCopy v0.99pb4"
PERFORMER "Sassafras"
TITLE "Riding High"
FILE "01 - Riding High.wav" WAVE
TRACK 01 AUDIO
TITLE "Riding High"
PERFORMER "Sassafras"
INDEX 01 00:00:00
FILE "02 - Nothin' To Lose.wav" WAVE
TRACK 02 AUDIO
TITLE "Nothin' To Lose"
PERFORMER "Sassafras"
INDEX 01 00:00:00
FILE "03 - Bad Blood.wav" WAVE
TRACK 03 AUDIO
TITLE "Bad Blood"
PERFORMER "Sassafras"
INDEX 01 00:00:00
FILE "04 - See Through A Mountain.wav" WAVE
TRACK 04 AUDIO
TITLE "See Through A Mountain"
PERFORMER "Sassafras"
INDEX 01 00:00:00
FILE "05 - New York Collapse.wav" WAVE
TRACK 05 AUDIO
TITLE "New York Collapse"
PERFORMER "Sassafras"
INDEX 01 00:00:00
FILE "06 - Small Town Talk.wav" WAVE
TRACK 06 AUDIO
TITLE "Small Town Talk"
PERFORMER "Sassafras"
INDEX 01 00:00:00
FILE "07 - Long Shot Lover.wav" WAVE
TRACK 07 AUDIO
TITLE "Long Shot Lover"
PERFORMER "Sassafras"
INDEX 01 00:00:00
FILE "08 - The Band Refuse To Play.wav" WAVE
TRACK 08 AUDIO
TITLE "The Band Refuse To Play"
PERFORMER "Sassafras"
INDEX 01 00:00:00
FILE "09 - Keep Rock 'n' Roll (Like It Used To Be).wav" WAVE
TRACK 09 AUDIO
TITLE "Keep Rock 'n' Roll (Like It Used To Be)"
PERFORMER "Sassafras"
INDEX 01 00:00:00
AUDIOCHECKER v2.0 beta (build 457) - by Dester - <a href="mailto:opdester@freemail.hu" class="postLink">opdester@freemail.hu</a>
~~~~~~~~~~~~~~~~~~~~~~~~~~~~~~~~~~
-=== НЕ РЕДАКТИРУЙТЕ ЭТОТ ФАЙЛ! ===-

Путь: ...\Sassafras - Wheelin' 'N' Dealin' (1975) [FLAC]

1 -=- 01 - Wheelin' 'N' Dealin'.flac -=- CDDA (100%)
2 -=- 02 - Highway Skies.flac -=- CDDA (99%)
3 -=- 03 - Hamburg Song.flac -=- CDDA (100%)
4 -=- 04 - Moonshine.flac -=- CDDA (100%)
5 -=- 05 - Peanut Man.flac -=- CDDA (100%)
6 -=- 06 - Box Car Hobo.flac -=- CDDA (100%)
7 -=- 07 - Ohio.flac -=- CDDA (100%)
8 -=- 08 - Soul Destroyer.flac -=- CDDA (100%)

Сводка 99,88% CDDA

152727716
AUDIOCHECKER v2.0 beta (build 457) - by Dester - <a href="mailto:opdester@freemail.hu" class="postLink">opdester@freemail.hu</a>
~~~~~~~~~~~~~~~~~~~~~~~~~~~~~~~~~~
-=== НЕ РЕДАКТИРУЙТЕ ЭТОТ ФАЙЛ! ===-

Путь: ...\Sassafras - Riding High (1976) [FLAC]

1 -=- 01 - Riding High.flac -=- CDDA (100%)
2 -=- 02 - Nothin' To Lose.flac -=- CDDA (99%)
3 -=- 03 - Bad Blood.flac -=- CDDA (99%)
4 -=- 04 - See Through A Mountain.flac -=- CDDA (100%)
5 -=- 05 - New York Collapse.flac -=- CDDA (99%)
6 -=- 06 - Small Town Talk.flac -=- CDDA (100%)
7 -=- 07 - Long Shot Lover.flac -=- CDDA (99%)
8 -=- 08 - The Band Refuse To Play.flac -=- CDDA (100%)
9 -=- 09 - Keep Rock 'n' Roll (Like It Used To Be).flac -=- CDDA (99%)

Сводка 99,44% CDDA

20110004
Terry Bennett - vocals
Dai Shell - guitar
Ralph Evans - guitar, vocals
Ricky John Holt - bass, vocals
Robert Jones - drums


Трекер:  [ 02-Янв-2013 09:19 ]

  

Скачать .torrent

Размер .torrent файла 13 KB


Размер: 532 MB
Хэш (hash) релиза: edadc0c240154a5a5f95c9562ae06e450a9755da

Еще никто не оставлял запись к записи скачать торрент Sassafras - Wheelin N Dealin- Riding High - 2008, FLAC . Будь первым!

!Обратная связь