Скачать через торрент музыку Linn County - Proud Flesh Soothseer - 1968 бесплатно без регистрации torrent

Если у вас наблюдаются проблемы со скриншотами, переходом по ссылками, скачиванием торрентов - проблемы в блокировщике рекламы AdBlock. #хорошегоДня!


Статистика раздачи
Размер:  335 MB   |    Зарегистрирован:  4 года 10 месяцев   |    .torrent скачан:  21 раз   |   
Раздают:  1  
   
Загрузка...
 
Автор Сообщение

Galfimbul

avatar Galfimbul


Linn County - Proud Flesh Soothseer

Жанр: Psychedelic Rock, Blues Rock, Hard Rock, Acid Rock
Год издания диска: 2007
Издатель (лейбл): FootPrint Records
Номер по каталогу: FPR 29000
Страна: USA
Аудио кодек: FLAC (*.flac)
Тип рипа: image+.cue
Битрейт аудио: lossless
Продолжительность: 00:39:32
Источник (релизер): Larry
Наличие сканов в содержимом раздачи:

Треклист:

01. Think (L.Pauling) 03:31
02. Lower Lemons (S.Miller, L.Easter, F.Walk) 04:06
03. Moon Food (S.Miller, L.Easter, F.Walk, D.Long) 06:30
04. Cave Song (S.Miller, B.Miskimen) 04:28
05. Protect & Serve/Bad Things (S.Miller, L.Easter, F.Walk) 14:12
06. Fast Days (S.Miller, F.Walk) 06:44
Exact Audio Copy V1.0 beta 3 from 29. August 2011

EAC extraction logfile from 29. December 2012, 20:36

Linn County / Proud Flesh Soothseer

Used drive : Optiarc DVD RW AD-7250H Adapter: 1 ID: 0

Read mode : SecureUtilize accurate stream : YesDefeat audio cache : YesMake use of C2 pointers : No

Read offset correction : 48Overread into Lead-In and Lead-Out : NoFill up missing offset samples with silence : YesDelete leading and trailing silent blocks : NoNull samples used in CRC calculations : YesUsed interface : Native Win32 interface for Win NT & 2000

Used output format : User Defined EncoderSelected bitrate : 896 kBit/sQuality : HighAdd ID3 tag : NoCommand line compressor : C:\Program Files (x86)\FLAC\flac.exeAdditional command line options : -8 -V -T "ARTIST=%artist%" -T "TITLE=%title%" -T "ALBUM=%albumtitle%" -T "DATE=%year%" -T "TRACKNUMBER=%tracknr%" -T "GENRE=%genre%" %source%

TOC of the extracted CD

Track | Start | Length | Start sector | End sector --------------------------------------------------------- 1 | 0:00.00 | 3:30.11 | 0 | 15760 2 | 3:30.11 | 4:05.46 | 15761 | 34181 3 | 7:35.57 | 6:29.36 | 34182 | 63392 4 | 14:05.18 | 4:28.20 | 63393 | 83512 5 | 18:33.38 | 14:11.67 | 83513 | 147404 6 | 32:45.30 | 6:46.09 | 147405 | 177863

Range status and errors

Selected range

Filename F:\cdrive\Music Rip\Linn County\Linn County - Proud Flesh Soothseer\Linn County - Proud Flesh Soothseer.wav

Peak level 80.2 % Extraction speed 1.2 X Range quality 100.0 % Copy CRC 4D99AD6B Copy OK

No errors occurred

AccurateRip summary

Track 1 not present in databaseTrack 2 not present in databaseTrack 3 not present in databaseTrack 4 not present in databaseTrack 5 not present in databaseTrack 6 not present in database

None of the tracks are present in the AccurateRip database

End of status report
REM GENRE RockREM DATE 1968REM DISCID 49094306REM COMMENT "ExactAudioCopy v1.0b3"PERFORMER "Linn County"TITLE "Proud Flesh Soothseer"FILE "Linn County - Proud Flesh Soothseer.flac" WAVE TRACK 01 AUDIO TITLE "Think" PERFORMER "Linn County" INDEX 01 00:00:00 TRACK 02 AUDIO TITLE "Lower Lemons" PERFORMER "Linn County" INDEX 00 03:29:11 INDEX 01 03:30:11 TRACK 03 AUDIO TITLE "Moon Food" PERFORMER "Linn County" INDEX 00 07:34:57 INDEX 01 07:35:57 TRACK 04 AUDIO TITLE "Cave Song" PERFORMER "Linn County" INDEX 00 14:04:18 INDEX 01 14:05:18 TRACK 05 AUDIO TITLE "Protect And Serve Bad Things" PERFORMER "Linn County" INDEX 00 18:32:38 INDEX 01 18:33:38 TRACK 06 AUDIO TITLE "Fast Days" PERFORMER "Linn County" INDEX 00 32:44:30 INDEX 01 32:45:30
-----------------------

DON'T MODIFY THIS FILE

-----------------------

PERFORMER: auCDtect Task Manager, ver. 1.5.1RC4 build 1.5.1.5Copyright (c) 2008-2010 y-soft. All rights reservedhttp://y-soft.org

ANALYZER: auCDtect: CD records authenticity detector, version 0.8.2Copyright (c) 2004 Oleg Berngardt. All rights reserved.Copyright (c) 2004 Alexander Djourik. All rights reserved.

FILE: Linn County - Proud Flesh Soothseer.flac Size: 236545335 Hash: E5B82B338213B524C49D9E8BB78087D8 Accuracy: -m8 Conclusion: CDDA 100% Signature: 894423B487D513A2D77FA2F712C7D68933D99FCE
Доп. информация:
Stephen Miller - Organ, Vocals
Fred Walk - Guitar, Electric Sitar
Dino Long - Bass Guitar
Larry Easter - Tenor Saxophone, Soprano Saxophone, Flute
Jerry 'Snake' Mcandrew - Percussion
Группа Linn County образовалась в 1967 году в Linn County, штат Айова, США, как Linn County Blues Band. В 1968 году группа подписала контракт с Mercury Records, переехал в Сан-Франциско, штат Калифорния, и изменила свое название на Linn County .Группа выпустила свой первый альбом «Proud Flesh Soothseer» в 1968 году,и стала гастролировать, выполняя роль разогрева на концертах у таких групп и музыкантов, как: Albert King, Led Zeppelin, Sly & The Family Stone, Eric Burdon & The Animals and Ten Years After.Группа распалась после того, как барабанщик Clark Pierson ушел играть к Janis Joplin.Группа Linn County выпустила три отличных альбома.


Трекер:  [ 02-Янв-2013 09:19 ]

  

Скачать .torrent

Размер .torrent файла 14 KB


Размер: 335 MB
Хэш (hash) релиза: d1e1795641919b853eac2bcf0c5b49c280fd47f2

Еще никто не оставлял запись к записи скачать торрент Linn County - Proud Flesh Soothseer - 1968 . Будь первым!

!Обратная связь