Скачать через торрент музыку Amarok 3 альбомов - Canciones de los Mundos Perdidos , Retrospectiva and Gouveia 2005 - 1995, 2007 & 2011, APE бесплатно без регистрации torrent

Если у вас наблюдаются проблемы со скриншотами, переходом по ссылками, скачиванием торрентов - проблемы в блокировщике рекламы AdBlock. #хорошегоДня!


Статистика раздачи
Размер:  1.18 GB   |    Зарегистрирован:  4 года 7 месяцев   |    .torrent скачан:  20 раз   |   
Раздают:  1  
   
Загрузка...
 
Автор Сообщение

Galfimbul

avatar Galfimbul


Amarok 3 альбомов - 1995 Canciones de los Mundos Perdidos, 2007 Retrospectiva & 2011 Gouveia 2005

Жанр: Progressive rock, Prog-folk, catalan folk, Spain prog
Страна-производитель диска: Mexico & Spain
Год издания диска: 1995 , 2007 & 2011
Издатель (лейбл): Luna Negra & Azafran-Musea
Номер по каталогу: CDLN-38, CDLN-33 & AP1209 - FGBG 4536
Страна: Spain [Catalunia]
Аудиокодек: APE (*.ape)
Тип рипа: image+.cue
Битрейт аудио: lossless
Продолжительность: 75:00, 80:00 & 65:00
Источник (релизер): My cd collection
Наличие сканов в содержимом раздачи: да

Треклист:
Canciones de los Mundos Perdidos
1. Prólogo
2. Canto Celta
3. El vuelo del pelícano
4. Cuevas submarinas
5. Islas
6. Els darrers caçadors
7. Nàufrags
8. Danza y lamento
9. Bolero
10. Homenaje a J.R.R. Tolkien
11. El viejo lugar prohibido
bonus Luna Negra Edition
12. Esqui de Fondo
13. Los Hosques de Irati
14. Elciclo del Tiempo
15. Solo Faltas Tu

Доп. информация:
- Robert Santamaría / keyboards
- Lídia Cerón / vocals
- Manel Sesé / percussion, composer
- Joan Morera / violin
- Asy Guerrero / guitar
- Kerstin Kokocinski / oboe
Retrospectiva
1. Somiedo (8:40)
2. Tucans Per Tot (4:59)
3. Prólogo (4:21)
4. Canto Celta (8:58)
5. El Vuelo Del Pelícano (2:43)
6. El Mestre De La Caverna (6:32)
7. Gibra'Ara (4:52)
8. M'Goun (5:26)
9. Danza De Samotracia (3:29)
10. Azabel Cuentacuentos - Fragmentos (4:36)
11. Llagrimes De Tardor (4:56)
12. La Canción Del Harén (3:21)
13. Tres Impresiones Para Guitara De Doce Cuerdas (4:31)
14. Fantasía Breve (1:52)
15. La Ultima Expedicion (Mezcla Alternativa) (4:56)
16. Dónde Estás Mi Amor (Conclusión - Directo Gouveia, 2005) (4:56)

Доп. информация:
- Robert Santamaría / keyboards, string instruments, percussion
- Lidia Cerón / voice (2, 3, 4, 6, 7, 11)
- Marta Segura / voice (11, 12, 15, 16)
- An Marí Morón / voice (8, 10)
- Manuel Sesé / percussion (2-4)
- Juan Alberto Arteche / percusión (6, 7)
- Kerstin Kokocinski / oboe (1, 4, 6, 14)
- Alfredo G. Arcusa / drums (1, 5)
- Pau Zañartu / drums (15)
- Renato di Prinzio / drums (16)
- Alan Shehab / bass (11, 12, 15, 16)
- Asy Guerrero / Spanish guitar (3,4)
- Víctor Estrada / Spanish guitar (6, 10), bass (6-8, 10)
- Joan Morera / violin (3, 4)
- Magno Maccaferri / violin (6, 7)
- Robert Abella / violin (8-10, 12)
- Manel Mayol / flute & tin whistle (6-8, 10-12, 16)
- Carlos Gallego / electric guitar (8), voice (10)
- Pablo Tato / electric guitar (16)
- Mireia Sisquella / soprano sax (8, 11, 12, 16)
- Marta Riba / backing vocals (11, 12)
- Miguel Ángel Ortín / tenor sax (15)
Gouveia 2005
1. M'Goun (5:26)
2. El Mestre De La Caverna (7:39)
3. Quentadharken (14:54)
4. Hsieh (7:23)
5. Mujer Luna (3:44)
6. The Lasts Of The Lasts. De La Suite Ermitanos (5:30)
7. La Espiral (5:56)
8. La Ultima Expedicion (6:39)
9. Laberintos De Piedra (7:54)

Доп. информация:
Alan Chehab / bass guitar, oud
Mireia Sisquella / soprano and alto saxophone, keyboards
Robert Santamaria / keyboards, guitar, saz
Pablo Tato / electric guitar, vocals
Marta Segura / vocals, percussion
Manel Mayol / flute, pennywhistle, backing vocals, percussion, didgeridoo
Renato Di Prinzio / drums, tabla, derbouka
Exact Audio Copy V0.99 prebeta 1 from 25. May 2007

EAC extraction logfile from 9. Nov 2011, 16:25

Amarok / Canciones de los Mundos Perdidos

Used drive : HL-DT-STDVD+-RW GSA-H21L Adapter: 0 ID: 0

Read mode : Secure
Utilize accurate stream : Yes
Defeat audio cache : Yes
Make use of C2 pointers : No

Read offset correction : 102
Overread into Lead-In and Lead-Out : Yes
Fill up missing offset samples with silence : Yes
Delete leading and trailing silent blocks : No
Used interface : Native Win32 interface for Win NT & 2000

Used output format : Monkey's Audio Lossless Encoder
Selected bitrate : Extra High Lossless Compression
Quality : High
Add ID3 tag : Yes
Command line compressor : C:\Arquivos de programas\Monkey's Audio\MAC.exe

TOC of the extracted CD

Track | Start | Length | Start sector | End sector
---------------------------------------------------------
1 | 0:00.00 | 4:22.06 | 0 | 19655
2 | 4:22.06 | 9:00.19 | 19656 | 60174
3 | 13:22.25 | 2:43.14 | 60175 | 72413
4 | 16:05.39 | 1:23.39 | 72414 | 78677
5 | 17:29.03 | 2:03.08 | 78678 | 87910
6 | 19:32.11 | 5:03.34 | 87911 | 110669
7 | 24:35.45 | 4:50.12 | 110670 | 132431
8 | 29:25.57 | 4:56.25 | 132432 | 154656
9 | 34:22.07 | 2:45.04 | 154657 | 167035
10 | 37:07.11 | 7:11.18 | 167036 | 199378
11 | 44:18.29 | 7:09.43 | 199379 | 231596
12 | 51:27.72 | 7:07.73 | 231597 | 263694
13 | 58:35.70 | 5:28.04 | 263695 | 288298
14 | 64:03.74 | 5:34.65 | 288299 | 313413
15 | 69:38.64 | 3:44.06 | 313414 | 330219
16 | 73:22.70 | 0:45.32 | 330220 | 333626

Range status and errors

Selected range

Filename C:\Documents and Settings\userpc\Meus documentos\CDs\Amarok2008 Canciones de los Mundos Perdidos [Spain Luna Negre CDLN-38].ape\Canciones de los Mundos Perdidos.wav

Peak level 100.0 %
Range quality 100.0 %
Test CRC 35C64050
Copy CRC 35C64050
Copy OK

AccurateRip summary

Track 1 not present in database
Track 2 not present in database
Track 3 not present in database
Track 4 not present in database
Track 5 not present in database
Track 6 not present in database
Track 7 not present in database
Track 8 not present in database
Track 9 not present in database
Track 10 not present in database
Track 11 not present in database
Track 12 not present in database
Track 13 not present in database
Track 14 not present in database
Track 15 not present in database
Track 16 not present in database

No errors occurred

End of status report
Exact Audio Copy V0.99 prebeta 1 from 25. May 2007

EAC extraction logfile from 23. September 2009, 8:30

Amarok / Retrospectiva

Used drive : HL-DT-STDVD+-RW GSA-H21L Adapter: 0 ID: 1

Read mode : Secure
Utilize accurate stream : Yes
Defeat audio cache : Yes
Make use of C2 pointers : No

Read offset correction : 102
Overread into Lead-In and Lead-Out : No
Fill up missing offset samples with silence : Yes
Delete leading and trailing silent blocks : No
Used interface : Native Win32 interface for Win NT & 2000

Used output format : Monkey's Audio Lossless Encoder
Selected bitrate : Normal Lossless Compression
Quality : High
Add ID3 tag : No
Command line compressor : C:\Arquivos de programas\Exact Audio Copy\Monkey\MAC.exe

TOC of the extracted CD

Track | Start | Length | Start sector | End sector
---------------------------------------------------------
1 | 0:00.00 | 8:44.00 | 0 | 39299
2 | 8:44.00 | 5:00.17 | 39300 | 61816
3 | 13:44.17 | 4:23.38 | 61817 | 81579
4 | 18:07.55 | 9:00.37 | 81580 | 122116
5 | 27:08.17 | 2:44.66 | 122117 | 134482
6 | 29:53.08 | 6:33.59 | 134483 | 164016
7 | 36:26.67 | 4:54.03 | 164017 | 186069
8 | 41:20.70 | 5:28.20 | 186070 | 210689
9 | 46:49.15 | 3:31.29 | 210690 | 226543
10 | 50:20.44 | 4:38.00 | 226544 | 247393
11 | 54:58.44 | 4:58.45 | 247394 | 269788
12 | 59:57.14 | 3:22.61 | 269789 | 284999
13 | 63:20.00 | 4:32.67 | 285000 | 305466
14 | 67:52.67 | 1:52.44 | 305467 | 313910
15 | 69:45.36 | 4:56.26 | 313911 | 336136
16 | 74:41.62 | 4:56.50 | 336137 | 358386

Range status and errors

Selected range

Filename C:\Documents and Settings\Hergest Ridge\Meus documentos\Amarok - Retrospectiva(2007)@ape\Amarok - Retrospectiva.wav

Peak level 100.0 %
Range quality 100.0 %
Copy CRC DE05E232
Copy OK

No errors occurred

End of status report
Exact Audio Copy V0.99 prebeta 1 from 25. May 2007

EAC extraction logfile from 12. September 2012, 12:09

Amarok / GOUVEIA 2005

Used drive : HL-DT-STDVD+-RW GSA-H21L Adapter: 0 ID: 0

Read mode : Secure
Utilize accurate stream : Yes
Defeat audio cache : Yes
Make use of C2 pointers : No

Read offset correction : 102
Overread into Lead-In and Lead-Out : Yes
Fill up missing offset samples with silence : Yes
Delete leading and trailing silent blocks : No
Used interface : Native Win32 interface for Win NT & 2000

Used output format : Monkey's Audio Lossless Encoder
Selected bitrate : Extra High Lossless Compression
Quality : High
Add ID3 tag : Yes
Command line compressor : C:\Arquivos de programas\Monkey's Audio\MAC.exe

TOC of the extracted CD

Track | Start | Length | Start sector | End sector
---------------------------------------------------------
1 | 0:00.00 | 7:39.74 | 0 | 34498
2 | 7:39.74 | 7:16.03 | 34499 | 67201
3 | 14:56.02 | 14:54.61 | 67202 | 134312
4 | 29:50.63 | 7:23.36 | 134313 | 167573
5 | 37:14.24 | 3:43.74 | 167574 | 184372
6 | 40:58.23 | 5:30.06 | 184373 | 209128
7 | 46:28.29 | 5:56.09 | 209129 | 235837
8 | 52:24.38 | 6:39.74 | 235838 | 265836
9 | 59:04.37 | 7:54.62 | 265837 | 301448

Range status and errors

Selected range

Filename C:\Documents and Settings\userpc\Meus documentos\CDs\Amarok - GOUVEIA 2005[Spain].ape\Gouveia.wav

Peak level 100.0 %
Range quality 100.0 %
Test CRC FBDEC332
Copy CRC FBDEC332
Copy OK

AccurateRip summary

Track 1 not present in database
Track 2 not present in database
Track 3 not present in database
Track 4 not present in database
Track 5 not present in database
Track 6 not present in database
Track 7 not present in database
Track 8 not present in database
Track 9 not present in database

No errors occurred

End of status report
REM GENRE "Progressive Rock"
REM DATE 2008
REM DISCID E6116010
REM COMMENT "ExactAudioCopy v0.99pb1"
PERFORMER "Amarok"
TITLE "Canciones de los Mundos Perdidos"
FILE "Canciones de los Mundos Perdidos.ape" WAVE
TRACK 01 AUDIO
TITLE "Prólogo"
PERFORMER "Amarok"
INDEX 01 00:00:00
TRACK 02 AUDIO
TITLE "Canto Celta"
PERFORMER "Amarok"
INDEX 01 04:22:06
TRACK 03 AUDIO
TITLE "Mochima (I. El Vuelo Del Pelicano)"
PERFORMER "Amarok"
INDEX 01 13:22:25
TRACK 04 AUDIO
TITLE "Mochima (II. Cuevas Submarinas)"
PERFORMER "Amarok"
INDEX 01 16:05:39
TRACK 05 AUDIO
TITLE "Islas"
PERFORMER "Amarok"
INDEX 01 17:29:03
TRACK 06 AUDIO
TITLE "Els Darrers Cacadors"
PERFORMER "Amarok"
INDEX 01 19:32:11
TRACK 07 AUDIO
TITLE " Naufrags"
PERFORMER "Amarok"
INDEX 01 24:35:45
TRACK 08 AUDIO
TITLE "Danza Y Lamento"
PERFORMER "Amarok"
INDEX 01 29:25:57
TRACK 09 AUDIO
TITLE "Bolero"
PERFORMER "Amarok"
INDEX 01 34:22:07
TRACK 10 AUDIO
TITLE " Homenaje A J.R.R. Tolkien"
PERFORMER "Amarok"
INDEX 01 37:07:11
TRACK 11 AUDIO
TITLE "El Viejo Lugar Prohibido (I. Niebla Sobre Los Prados/II. Mascaras/III. El Bos..."
PERFORMER "Amarok"
INDEX 01 44:18:29
TRACK 12 AUDIO
TITLE "Esqui De Fondo"
PERFORMER "Amarok"
INDEX 01 51:27:72
TRACK 13 AUDIO
TITLE "Los Bosques De Irati"
PERFORMER "Amarok"
INDEX 01 58:35:70
TRACK 14 AUDIO
TITLE " El Ciclo Del Tiempo"
PERFORMER "Amarok"
INDEX 00 64:03:71
INDEX 01 64:03:74
TRACK 15 AUDIO
TITLE "Solo Faltas Tu"
PERFORMER "Amarok"
INDEX 01 69:38:64
TRACK 16 AUDIO
TITLE "Epilogo"
PERFORMER "Amarok"
INDEX 01 73:22:70
REM GENRE "Progressive Rock"
REM DATE 2007
REM DISCID EA12AA10
REM COMMENT "ExactAudioCopy v0.99pb1"
PERFORMER "Amarok"
TITLE "Retrospectiva"
FILE "Retrospectiva.ape" WAVE
TRACK 01 AUDIO
TITLE "Somiedo "
PERFORMER "Amarok"
INDEX 01 00:00:00
TRACK 02 AUDIO
TITLE "Tucans Per Tot "
PERFORMER "Amarok"
INDEX 00 08:42:00
INDEX 01 08:44:00
TRACK 03 AUDIO
TITLE "Prologo "
PERFORMER "Amarok"
INDEX 01 13:44:17
TRACK 04 AUDIO
TITLE "Canto Celta "
PERFORMER "Amarok"
INDEX 01 18:07:55
TRACK 05 AUDIO
TITLE "Vuelo de Pelicano"
PERFORMER "Amarok"
INDEX 01 27:08:17
TRACK 06 AUDIO
TITLE "Mestre de La Caverna"
PERFORMER "Amarok"
INDEX 01 29:53:08
TRACK 07 AUDIO
TITLE "Gibra'ara"
PERFORMER "Amarok"
INDEX 01 36:26:67
TRACK 08 AUDIO
TITLE "M'Goun "
PERFORMER "Amarok"
INDEX 01 41:20:70
TRACK 09 AUDIO
TITLE "Danza de Samotracia"
PERFORMER "Amarok"
INDEX 01 46:49:15
TRACK 10 AUDIO
TITLE "Azabel Cuentacuentos - Fragmentos "
PERFORMER "Amarok"
INDEX 01 50:20:44
TRACK 11 AUDIO
TITLE "Llagrimes de Tardor "
PERFORMER "Amarok"
INDEX 01 54:58:44
TRACK 12 AUDIO
TITLE "Cancion de Haren"
PERFORMER "Amarok"
INDEX 01 59:57:14
TRACK 13 AUDIO
TITLE "Tres Impresiones Para Guitara de Doce Cuerdas "
PERFORMER "Amarok"
INDEX 01 63:20:00
TRACK 14 AUDIO
TITLE "Fantasia Breve "
PERFORMER "Amarok"
INDEX 01 67:52:67
TRACK 15 AUDIO
TITLE "Ultima Expedicion - Mezcla Alternativa"
PERFORMER "Amarok"
INDEX 01 69:45:36
TRACK 16 AUDIO
TITLE "Donde Estas Mi Amor - Conclusion"
PERFORMER "Amarok"
INDEX 01 74:41:62
REM GENRE "Progressive Rock"
REM DATE 2005
REM DISCID 840FB309
REM COMMENT "ExactAudioCopy v0.99pb1"
PERFORMER "Amarok "
TITLE "GOUVEIA 2005"
FILE "Gouveia.ape" WAVE
TRACK 01 AUDIO
TITLE "M'Goun"
PERFORMER "Amarok "
INDEX 01 00:00:00
TRACK 02 AUDIO
TITLE "El Mestre De La Caverna"
PERFORMER "Amarok "
INDEX 01 07:39:74
TRACK 03 AUDIO
TITLE "Quentadharken"
PERFORMER "Amarok "
INDEX 01 14:56:02
TRACK 04 AUDIO
TITLE "Hsieh "
PERFORMER "Amarok "
INDEX 01 29:50:63
TRACK 05 AUDIO
TITLE "Mujer Luna"
PERFORMER "Amarok "
INDEX 01 37:14:24
TRACK 06 AUDIO
TITLE "The Lasts Of The Lasts. De La Suite Ermitanos"
PERFORMER "Amarok "
INDEX 01 40:58:23
TRACK 07 AUDIO
TITLE "La Espiral"
PERFORMER "Amarok "
INDEX 01 46:28:29
TRACK 08 AUDIO
TITLE "La Ultima Expedicion"
PERFORMER "Amarok "
INDEX 01 52:24:38
TRACK 09 AUDIO
TITLE "Laberintos De Piedra"
PERFORMER "Amarok "
INDEX 01 59:04:37
AUDIOCHECKER v2.0 beta (build 457) - by Dester - <a href="mailto:opdester@freemail.hu" class="postLink">opdester@freemail.hu</a>
~~~~~~~~~~~~~~~~~~~~~~~~~~~~~~~~~~
-=== DO NOT EDIT THIS FILE! ===-

Path: ...\Amarok1995 Canciones de los Mundos Perdidos [2008 Luna Negre CDLN-38].ape

1 -=- Canciones de los Mundos Perdidos.ape -=- CDDA (99%)

144093780
AUDIOCHECKER v1.2 - by Dester - <a href="mailto:opdester@freemail.hu" class="postLink">opdester@freemail.hu</a>
~~~~~~~~~~~~~~~~~

01 -===- C:\0 musica\torrent.ru waiting\0 Latin\Amarok2007 Retrospectiva [2007 Luna Negra CDLN-33].ape\Retrospectiva.ape
Extracted successfully
Conclusion: This track looks like CDDA with probability 100%
AUDIOCHECKER v2.0 beta (build 457) - by Dester - <a href="mailto:opdester@freemail.hu" class="postLink">opdester@freemail.hu</a>
~~~~~~~~~~~~~~~~~~~~~~~~~~~~~~~~~~
-=== DO NOT EDIT THIS FILE! ===-

Path: ...\Amarok2005 Gouveia [Azafran AP1209-Musea FGBG 4536].ape

1 -=- Gouveia.ape -=- CDDA (100%)

191110084
AMAROK (the Eskimo word for 'wolf') is a mainly acoustic duo from Catalona. It is the pet project of multi-instrumentalist (and palaeontologist) Robert Santamaria and classically trained vocalist Lidia Cerón. Their material explores new age, electronic, folk, ethnic and progressive sounds. Keyboard rhythm sequences are the basis for the calm, atmospheric melodies pictured by Cerón's peaceful Spanish, ENYA-like vocals. The band does not confine their musicality to their native folk elements, however, as they combine Middle-Eastern and North African textures as well as Medieval European Minstrel orchestrations with free jazz and lots of various world music elements.

Of their six albums released todate, "Mujer Luna" (2002) is their most progressive. Featuring a high level of instrumental sophistication, it is a complex yet pleasant combination of acoustic prog with keyboards and guitar, hinting at a fusion of ELP, CAMEL and KING CRIMSON. Their sixth album, "Quentadharken" (2004), more keyboard and electric guitar oriented, is a bit more neo than purely progressive.

AMAROK's music is quite an experience, their repertoire almost sounding like a compilation of ethnic prog bands. Their material should appeal to fans of ERIS PLUVIA, particularly the album "Mujer Luna".
Canciones de los Mundos Perdidos
Songs from the Lost Worlds, that's the English translation for AMAROK's second album having a very orchestral-like arrangement but lacks a bit the ethnic influence and jazz touch from their other releases I listened so far. First half of the record (1 - 7) subtitled "Canciones de los mundos perdidos" contains exclusively tracks with vocals whereas second half subtitled "Danzas de los mundos perdidos" is mostly instrumental. Overall the album is very pleasant and relaxing, but for some reason it's for me the least attractive one of the four releases I listened to from them. But don't get me wrong, this doesn't mean that it's no good either. I'm sure for anyone who's more into the mellow side of prog, let's say fans of band RENAISSANCE or MIKE OLDFIELD for example it's a great record. Nevertheless since there is already one 5-star rating I find it more adequate to give only 3 stars (which means good anyway).

Retrospectivacompilation

Gouveia 2005
Live album, here we can listen a mixture of symphonic prog with folk rock and even some jazzy tunes that together produce the own and particular Amarok sound. Now after six years of the original concert, they took the decision of releasing this album with a particular story, because (according to the booklet) this was meant to be a DVD but due to some bad luck the video data disappeared. However, the audio was still saved and Robert Santamaría (Amarok's leader) decided to give it a chance and releasing it as a CD, in order to give their fans a taste of their live sound.


Трекер:  [ 02-Янв-2013 09:19 ]

  

Скачать .torrent

Размер .torrent файла 15 KB


Размер: 1.18 GB
Хэш (hash) релиза: 8f137a4d710191b23715620de923998911a1c8f8

Еще никто не оставлял запись к записи скачать торрент Amarok 3 альбомов - Canciones de los Mundos Perdidos , Retrospectiva and Gouveia 2005 - 1995, 2007 & 2011, APE . Будь первым!

!Обратная связь