Скачать через торрент Татьяна Зыкина - Ощущение реальности бесплатно русская версия torrent активатор

Если у вас наблюдаются проблемы со скриншотами, переходом по ссылками, скачиванием торрентов - проблемы в блокировщике рекламы AdBlock. #хорошегоДня!


Статистика раздачи
Размер:  430 MB   |    Зарегистрирован:  4 года 9 месяцев   |    .torrent скачан:  25 раз   |   
Раздают:  1  
   
Загрузка...
 
Автор Сообщение

Galfimbul

avatar Galfimbul


Татьяна Зыкина - Ощущение реальности (Single)

Год: 2009
Страна: Россия
Страна-производитель диска: Россия
Жанр: Alternative
Тип издания: оригинал
Издатель (лейбл): Real Records
Номер по каталогу: RR-409-SINGLE
Наличие сканов в содержимом раздачи: да
Продолжительность: 27:29
Вшитые тексты: добавлены
Кодек: ALAC
Программа-риповщик : XLD (lossless)
Битрейт: lossless

Треклист:
01. 4444 4:21
02. Водопадами 3:47
03. ДР 3:50
04. Незачем 4:46
05. Верь мне 3:10
06. Библиотеки 4:24
07. Нора feat. Илья Лагутенко 3:18
08. Водопадами (Video) 3:54
X Lossless Decoder version 20121222 (142.2)

XLD extraction logfile from 2013-01-01 13:44:48 +0400

Татьяна Зыкина / Ощущение реальности (Single)

Used drive : HL-DT-ST DVDRW GA32N (revision KC12)Media type : CD-Recordable

Ripper mode : CDParanoia III 10.2Disable audio cache : OK for the drive with a cache less than 2750KiBMake use of C2 pointers : NORead offset correction : 103Max retry count : 20Gap status : Analyzed, Appended

TOC of the extracted CD Track | Start | Length | Start sector | End sector --------------------------------------------------------- 1 | 00:00:00 | 04:21:13 | 0 | 19587 2 | 04:21:13 | 03:47:55 | 19588 | 36667 3 | 08:08:68 | 03:50:71 | 36668 | 53988 4 | 11:59:64 | 04:46:48 | 53989 | 75486 5 | 16:46:37 | 03:10:24 | 75487 | 89760 6 | 19:56:61 | 04:24:20 | 89761 | 109580 7 | 24:21:06 | 03:18:24 | 109581 | 124454 8 | 30:11:30 | 26:30:57 | 135855 | 255161

AccurateRip Summary Disc not found in AccurateRip DB.

All Tracks Album gain : -10.41 dB Peak : 0.994385 Statistics Read error : 0 Skipped (treated as error) : 0 Edge jitter error (maybe fixed) : 0 Atom jitter error (maybe fixed) : 0 Drift error (maybe fixed) : 0 Dropped bytes error (maybe fixed) : 0 Duplicated bytes error (maybe fixed) : 0

Track 01 Filename : /Users/mvideobars/Desktop/01 Татьяна Зыкина - 4444.m4a Pre-gap length : 00:02:00

Track gain : -9.40 dB Peak : 0.994385 CRC32 hash (test run) : 1E38583B CRC32 hash : 1E38583B CRC32 hash (skip zero) : D6E0ADA2 AccurateRip v1 signature : 200C8D80 AccurateRip v2 signature : A29F4F92 ->Track not present in AccurateRip database. Statistics Read error : 0 Skipped (treated as error) : 0 Edge jitter error (maybe fixed) : 0 Atom jitter error (maybe fixed) : 0 Drift error (maybe fixed) : 0 Dropped bytes error (maybe fixed) : 0 Duplicated bytes error (maybe fixed) : 0 Inconsistency in error sectors : 0

Track 02 Filename : /Users/mvideobars/Desktop/02 Татьяна Зыкина - Водопадами.m4a Pre-gap length : 00:01:58

Track gain : -10.95 dB Peak : 0.994385 CRC32 hash (test run) : F9C2D292 CRC32 hash : F9C2D292 CRC32 hash (skip zero) : DC52EA7A AccurateRip v1 signature : F7100DE0 AccurateRip v2 signature : C8B0C33D ->Track not present in AccurateRip database. Statistics Read error : 0 Skipped (treated as error) : 0 Edge jitter error (maybe fixed) : 0 Atom jitter error (maybe fixed) : 0 Drift error (maybe fixed) : 0 Dropped bytes error (maybe fixed) : 0 Duplicated bytes error (maybe fixed) : 0 Inconsistency in error sectors : 0

Track 03 Filename : /Users/mvideobars/Desktop/03 Татьяна Зыкина - Др.m4a Pre-gap length : 00:01:58

Track gain : -10.55 dB Peak : 0.994385 CRC32 hash (test run) : 72FCE5AA CRC32 hash : 72FCE5AA CRC32 hash (skip zero) : 5D27DC0D AccurateRip v1 signature : BB2F6A09 AccurateRip v2 signature : 8CA0CCAC ->Track not present in AccurateRip database. Statistics Read error : 0 Skipped (treated as error) : 0 Edge jitter error (maybe fixed) : 0 Atom jitter error (maybe fixed) : 0 Drift error (maybe fixed) : 0 Dropped bytes error (maybe fixed) : 0 Duplicated bytes error (maybe fixed) : 0 Inconsistency in error sectors : 0

Track 04 Filename : /Users/mvideobars/Desktop/04 Татьяна Зыкина - Незачем.m4a Pre-gap length : 00:01:58

Track gain : -11.19 dB Peak : 0.994385 CRC32 hash (test run) : BBC6E3CD CRC32 hash : BBC6E3CD CRC32 hash (skip zero) : B7A66736 AccurateRip v1 signature : 2DB715E4 AccurateRip v2 signature : 63E0C359 ->Track not present in AccurateRip database. Statistics Read error : 0 Skipped (treated as error) : 0 Edge jitter error (maybe fixed) : 0 Atom jitter error (maybe fixed) : 0 Drift error (maybe fixed) : 0 Dropped bytes error (maybe fixed) : 0 Duplicated bytes error (maybe fixed) : 0 Inconsistency in error sectors : 0

Track 05 Filename : /Users/mvideobars/Desktop/05 Татьяна Зыкина - Верь мне.m4a Pre-gap length : 00:01:58

Track gain : -7.40 dB Peak : 0.994385 CRC32 hash (test run) : 0F7B12EC CRC32 hash : 0F7B12EC CRC32 hash (skip zero) : FF508730 AccurateRip v1 signature : 52EE2188 AccurateRip v2 signature : A7535C25 ->Track not present in AccurateRip database. Statistics Read error : 0 Skipped (treated as error) : 0 Edge jitter error (maybe fixed) : 0 Atom jitter error (maybe fixed) : 0 Drift error (maybe fixed) : 0 Dropped bytes error (maybe fixed) : 0 Duplicated bytes error (maybe fixed) : 0 Inconsistency in error sectors : 0

Track 06 Filename : /Users/mvideobars/Desktop/06 Татьяна Зыкина - Библиотеки.m4a Pre-gap length : 00:01:58

Track gain : -8.66 dB Peak : 0.994385 CRC32 hash (test run) : 531F7330 CRC32 hash : 531F7330 CRC32 hash (skip zero) : 7262D440 AccurateRip v1 signature : 88741508 AccurateRip v2 signature : 3713A6DA ->Track not present in AccurateRip database. Statistics Read error : 0 Skipped (treated as error) : 0 Edge jitter error (maybe fixed) : 0 Atom jitter error (maybe fixed) : 0 Drift error (maybe fixed) : 0 Dropped bytes error (maybe fixed) : 0 Duplicated bytes error (maybe fixed) : 0 Inconsistency in error sectors : 0

Track 07 Filename : /Users/mvideobars/Desktop/07 Татьяна Зыкина feat Илья Лагутенко - Нора.m4a Pre-gap length : 00:01:58

Track gain : -10.03 dB Peak : 0.994385 CRC32 hash (test run) : 31544A7C CRC32 hash : 31544A7C CRC32 hash (skip zero) : 989A929C AccurateRip v1 signature : 71BC6213 AccurateRip v2 signature : BB19CD3B ->Track not present in AccurateRip database. Statistics Read error : 0 Skipped (treated as error) : 0 Edge jitter error (maybe fixed) : 0 Atom jitter error (maybe fixed) : 0 Drift error (maybe fixed) : 0 Dropped bytes error (maybe fixed) : 0 Duplicated bytes error (maybe fixed) : 0 Inconsistency in error sectors : 0

No errors occurred

End of status report


*** General Parameters ***- Name: T. Zykina - Vodopadami.avi- Container: AVI - Audio Video Interleaved- Size: 244,32 MB- Duration: 3mn 54s- Bitrate: 8 325 Kbps

*** Video Track Parameters ***- Format: MPEG-4 DivX v.5- Bitrate: Max.: Undefined / Average: 6 779 Kbps / Min.: Undefined- Frame rate (fps): Max.: Undefined / Average: 25.000 / Min.: Undefined- Encoding profile: Undefined- Image size: 720*576- Pixel Aspect Ratio: Undefined- Display Aspect Ratio: 5:4- Interlacing: Progressive

*** First Audio Track Parameters ***- Format: Uncompressed PCM- Bitrate: 1 536 Kbps- Resolution: 16 bits- Rate: 48.0 KHz- Channel(s): 2 (stereo)- Position: Undefined


Трекер:  [ 02-Янв-2013 14:10 ]

  

Скачать .torrent

Размер .torrent файла 18 KB


Размер: 430 MB
Хэш (hash) релиза: 35f35d3bafe707980190d44cac5b2174a55861e6

Еще никто не оставлял запись к записи скачать торрент Татьяна Зыкина - Ощущение реальности . Будь первым!

!Обратная связь