Скачать через торрент Valeriya бесплатно русская версия torrent активатор

Если у вас наблюдаются проблемы со скриншотами, переходом по ссылками, скачиванием торрентов - проблемы в блокировщике рекламы AdBlock. #хорошегоДня!


Статистика раздачи
Размер:  132 MB   |    Зарегистрирован:  4 года 9 месяцев   |    .torrent скачан:  33 раза   |   
Раздают:  1  
   
Загрузка...
 
Автор Сообщение

Galfimbul

avatar Galfimbul


Valeriya - The Party's Over (UK Promo CD-R)

Год: 2008
Страна: Россия
Страна-производитель диска: UK
Жанр: Pop
Тип издания: оригинал
Издатель (лейбл): Nox Music
Номер по каталогу: none
Наличие сканов в содержимом раздачи: да
Продолжительность: 14:04
Вшитые тексты: добавлены
Кодек: ALAC
Программа-риповщик : XLD (lossless)
Битрейт: lossless

01. The Party's Over (Album Version) 3:59
02. The Party's Over (Remix Edit) 3:37
03. The Party's Over (Remix Full Length) 6:28
X Lossless Decoder version 20121222 (142.2)

XLD extraction logfile from 2013-01-01 14:35:19 +0400

Valeriya / The Party's Over (UK Promo CD-R)

Used drive : HL-DT-ST DVDRW GA32N (revision KC12)Media type : CD-Recordable

Ripper mode : CDParanoia III 10.2Disable audio cache : OK for the drive with a cache less than 2750KiBMake use of C2 pointers : NORead offset correction : 103Max retry count : 20Gap status : Analyzed, Appended

TOC of the extracted CD Track | Start | Length | Start sector | End sector --------------------------------------------------------- 1 | 00:00:00 | 03:58:67 | 0 | 17916 2 | 03:58:67 | 03:37:13 | 17917 | 34204 3 | 07:36:05 | 06:27:71 | 34205 | 63300

AccurateRip Summary (DiscID: 0001c2df-0005f9e6-19034c03) Track 01 : OK (v1, confidence 1/1) Track 02 : OK (v1, confidence 1/1) Track 03 : OK (v1, confidence 1/1) ->All tracks accurately ripped.

All Tracks Album gain : -9.35 dB Peak : 1.000000 Statistics Read error : 0 Skipped (treated as error) : 0 Edge jitter error (maybe fixed) : 0 Atom jitter error (maybe fixed) : 0 Drift error (maybe fixed) : 0 Dropped bytes error (maybe fixed) : 0 Duplicated bytes error (maybe fixed) : 0

Track 01 Filename : /Users/mvideobars/Desktop/01 Valeriya - The Party's Over (Album Version).m4a Pre-gap length : 00:02:00

Track gain : -10.18 dB Peak : 1.000000 CRC32 hash (test run) : 85BE01F7 CRC32 hash : 85BE01F7 CRC32 hash (skip zero) : B05880EC AccurateRip v1 signature : B35C3308 AccurateRip v2 signature : 079BC9A2 ->Accurately ripped (v1, confidence 1/1) Statistics Read error : 0 Skipped (treated as error) : 0 Edge jitter error (maybe fixed) : 0 Atom jitter error (maybe fixed) : 0 Drift error (maybe fixed) : 0 Dropped bytes error (maybe fixed) : 0 Duplicated bytes error (maybe fixed) : 0 Inconsistency in error sectors : 0

Track 02 Filename : /Users/mvideobars/Desktop/02 Valeriya - The Party's Over (Remix Edit).m4a

Track gain : -8.60 dB Peak : 1.000000 CRC32 hash (test run) : 5B82E912 CRC32 hash : 5B82E912 CRC32 hash (skip zero) : 75E5595B AccurateRip v1 signature : 322F4080 AccurateRip v2 signature : 75A69482 ->Accurately ripped (v1, confidence 1/1) Statistics Read error : 0 Skipped (treated as error) : 0 Edge jitter error (maybe fixed) : 0 Atom jitter error (maybe fixed) : 0 Drift error (maybe fixed) : 0 Dropped bytes error (maybe fixed) : 0 Duplicated bytes error (maybe fixed) : 0 Inconsistency in error sectors : 0

Track 03 Filename : /Users/mvideobars/Desktop/03 Valeriya - The Party's Over (Remix Full Length).m4a

Track gain : -8.15 dB Peak : 1.000000 CRC32 hash (test run) : 9997A53E CRC32 hash : 9997A53E CRC32 hash (skip zero) : B94179DB AccurateRip v1 signature : 807CE27C AccurateRip v2 signature : CB6F30F1 ->Accurately ripped (v1, confidence 1/1) Statistics Read error : 0 Skipped (treated as error) : 0 Edge jitter error (maybe fixed) : 0 Atom jitter error (maybe fixed) : 0 Drift error (maybe fixed) : 0 Dropped bytes error (maybe fixed) : 0 Duplicated bytes error (maybe fixed) : 0 Inconsistency in error sectors : 0

No errors occurred

End of status report


Трекер:  [ 02-Янв-2013 14:10 ]

  

Скачать .torrent

Размер .torrent файла 11 KB


Размер: 132 MB
Хэш (hash) релиза: 99554959c54656e08aeb93babcec941a3b2a7da0

Еще никто не оставлял запись к записи скачать торрент Valeriya . Будь первым!

!Обратная связь