Скачать через торрент музыку Anima Mundi - Live in Europe бесплатно без регистрации torrent

Если у вас наблюдаются проблемы со скриншотами, переходом по ссылками, скачиванием торрентов - проблемы в блокировщике рекламы AdBlock. #хорошегоДня!


Статистика раздачи
Размер:  692 MB   |    Зарегистрирован:  4 года 7 месяцев   |    .torrent скачан:  19 раз   |   
Раздают:  1  
   
Загрузка...
 
Автор Сообщение

Galfimbul

avatar Galfimbul


Anima Mundi - Live in Europe

Жанр: Symphonic Prog
Год издания диска: 2012
Издатель (лейбл): Anima Mundi Music
Номер по каталогу: AMMUS 002
Страна: Cuba
Аудио кодек: FLAC (*.flac)
Тип рипа: tracks+.cue
Битрейт аудио: lossless
Продолжительность: 01:24:41
Источник (релизер): Суслик
Наличие сканов в содержимом раздачи:
Треклист:
01. Time To Understand 14:57
02. Rhythm Of The Spheres 18:08
03. Sanctuary 10:33
04. La Montana del Vigia 04:24
Exact Audio Copy V1.0 beta 1 from 15. November 2010

EAC extraction logfile from 30. October 2012, 23:52

Anima Mundi / Live in Europe CD1

Used drive : HL-DT-STDVD-ROM GDRH10N Adapter: 3 ID: 0

Read mode : SecureUtilize accurate stream : YesDefeat audio cache : YesMake use of C2 pointers : No

Read offset correction : 102Overread into Lead-In and Lead-Out : NoFill up missing offset samples with silence : YesDelete leading and trailing silent blocks : NoNull samples used in CRC calculations : YesUsed interface : Native Win32 interface for Win NT & 2000Gap handling : Appended to previous track

Used output format : User Defined EncoderSelected bitrate : 896 kBit/sQuality : HighAdd ID3 tag : NoCommand line compressor : C:\Programfiler\Exact Audio Copy\FLAC\FLAC.EXEAdditional command line options : -8 -V -T "ARTIST=%a" -T "TITLE=%t" -T "ALBUM=%g" -T "DATE=%y" -T "TRACKNUMBER=%n" -T "TOTALTRACKS=%x" -T "GENRE=%m" -T "ALBUMARTIST=%v" -T "ALBUM ARTIST=%v" -T "COMMENT=EAC V1.0 beta 1, Secure Mode, Test & Copy, AccurateRip

TOC of the extracted CD

Track | Start | Length | Start sector | End sector --------------------------------------------------------- 1 | 0:00.00 | 14:57.01 | 0 | 67275 2 | 14:57.01 | 18:08.00 | 67276 | 148875 3 | 33:05.01 | 10:33.00 | 148876 | 196350 4 | 43:38.01 | 4:24.00 | 196351 | 216150

Track 1

Filename C:\[runner's rip]\Anima Mundi - Live In Europe (2012) [flac] {2-CD}\CD-1\01 - Time To Understand.wav

Pre-gap length 0:00:02.00

Peak level 98.3 % Extraction speed 6.3 X Track quality 100.0 % Test CRC F2C0C1A6 Copy CRC F2C0C1A6 Track not present in AccurateRip database Copy OK

Track 2

Filename C:\[runner's rip]\Anima Mundi - Live In Europe (2012) [flac] {2-CD}\CD-1\02 - Rhythm Of The Spheres.wav

Peak level 98.4 % Extraction speed 6.6 X Track quality 100.0 % Test CRC C01795AF Copy CRC C01795AF Track not present in AccurateRip database Copy OK

Track 3

Filename C:\[runner's rip]\Anima Mundi - Live In Europe (2012) [flac] {2-CD}\CD-1\03 - Sanctuary.wav

Peak level 98.4 % Extraction speed 6.5 X Track quality 100.0 % Test CRC 22F6A024 Copy CRC 22F6A024 Track not present in AccurateRip database Copy OK

Track 4

Filename C:\[runner's rip]\Anima Mundi - Live In Europe (2012) [flac] {2-CD}\CD-1\04 - La Montana del Vigia.wav

Peak level 98.4 % Extraction speed 5.3 X Track quality 99.9 % Test CRC D9CF2B04 Copy CRC D9CF2B04 Track not present in AccurateRip database Copy OK

None of the tracks are present in the AccurateRip database

No errors occurred

End of status report

==== Log checksum 7A605D0A0C24DDDB998AB9C0BA47CD1B5A2BD404D90BF3D79A4AB551FA2E42FC ====
REM GENRE "Progressive Rock"REM DATE 2012REM DISCID 3F0B4204REM COMMENT "ExactAudioCopy v1.0b1"PERFORMER "Anima Mundi"TITLE "Live in Europe CD1"FILE "01 - Time To Understand.wav" WAVE TRACK 01 AUDIO TITLE "Time To Understand" PERFORMER "Anima Mundi" INDEX 01 00:00:00FILE "02 - Rhythm Of The Spheres.wav" WAVE TRACK 02 AUDIO TITLE "Rhythm Of The Spheres" PERFORMER "Anima Mundi" INDEX 01 00:00:00FILE "03 - Sanctuary.wav" WAVE TRACK 03 AUDIO TITLE "Sanctuary" PERFORMER "Anima Mundi" INDEX 01 00:00:00FILE "04 - La Montana del Vigia.wav" WAVE TRACK 04 AUDIO TITLE "La Montana del Vigia" PERFORMER "Anima Mundi" INDEX 01 00:00:00
-----------------------

DON'T MODIFY THIS FILE

-----------------------

PERFORMER: auCDtect Task Manager, ver. 1.5.1RC4 build 1.5.1.5Copyright (c) 2008-2010 y-soft. All rights reservedhttp://y-soft.org

ANALYZER: auCDtect: CD records authenticity detector, version 0.8.2Copyright (c) 2004 Oleg Berngardt. All rights reserved.Copyright (c) 2004 Alexander Djourik. All rights reserved.

FILE: 04 - La Montana del Vigia.flac Size: 31368419 Hash: 510C88706E1BC93CDD7104FD231601BC Accuracy: -m8 Conclusion: CDDA 86% Signature: 924A9920F448132FF7332974764B14F0641018A8FILE: 03 - Sanctuary.flac Size: 77775751 Hash: 4354A68901273D3CC0F7886FE356B36C Accuracy: -m8 Conclusion: CDDA 100% Signature: 837B52B8A9EB77F5AE667E324F569E6C1E6AC53BFILE: 02 - Rhythm Of The Spheres.flac Size: 125817725 Hash: 9C2BA2A6A3B9D5F0C1B12E6BA54C2030 Accuracy: -m8 Conclusion: CDDA 87% Signature: BAFC854857E02995672E6967FBD3F629F6F52AA9FILE: 01 - Time To Understand.flac Size: 103460699 Hash: CC5D392F3F92F00A2E5D5D3AC80B287E Accuracy: -m8 Conclusion: CDDA 100% Signature: 4A01BD974EC1BBB14BA6133C6181CDB7A8F18869
01. Spring Knocks On The Door Of Men 26:15
02. Flying To The Sun 09:37
03. Cosmic Man 09:37
04. The Return 03:56
05. Firth Of Fifth (excerpt) 05:29
Exact Audio Copy V1.0 beta 1 from 15. November 2010

EAC extraction logfile from 30. October 2012, 23:35

Anima Mundi / Live In Europe CD2

Used drive : HL-DT-STDVD-ROM GDRH10N Adapter: 3 ID: 0

Read mode : SecureUtilize accurate stream : YesDefeat audio cache : YesMake use of C2 pointers : No

Read offset correction : 102Overread into Lead-In and Lead-Out : NoFill up missing offset samples with silence : YesDelete leading and trailing silent blocks : NoNull samples used in CRC calculations : YesUsed interface : Native Win32 interface for Win NT & 2000Gap handling : Appended to previous track

Used output format : User Defined EncoderSelected bitrate : 896 kBit/sQuality : HighAdd ID3 tag : NoCommand line compressor : C:\Programfiler\Exact Audio Copy\FLAC\FLAC.EXEAdditional command line options : -8 -V -T "ARTIST=%a" -T "TITLE=%t" -T "ALBUM=%g" -T "DATE=%y" -T "TRACKNUMBER=%n" -T "TOTALTRACKS=%x" -T "GENRE=%m" -T "ALBUMARTIST=%v" -T "ALBUM ARTIST=%v" -T "COMMENT=EAC V1.0 beta 1, Secure Mode, Test & Copy, AccurateRip

TOC of the extracted CD

Track | Start | Length | Start sector | End sector --------------------------------------------------------- 1 | 0:00.00 | 26:14.60 | 0 | 118109 2 | 26:14.60 | 9:36.53 | 118110 | 161362 3 | 35:51.38 | 9:37.00 | 161363 | 204637 4 | 45:28.38 | 3:56.00 | 204638 | 222337 5 | 49:24.38 | 5:29.00 | 222338 | 247012

Track 1

Filename C:\[runner's rip]\Anima Mundi - Live In Europe (2012) [flac] {2-CD}\CD-2\01 - Spring Knocks On The Door Of Men.wav

Pre-gap length 0:00:02.00

Peak level 98.4 % Extraction speed 6.6 X Track quality 100.0 % Test CRC AFB17069 Copy CRC AFB17069 Track not present in AccurateRip database Copy OK

Track 2

Filename C:\[runner's rip]\Anima Mundi - Live In Europe (2012) [flac] {2-CD}\CD-2\02 - Flying To The Sun.wav

Peak level 98.4 % Extraction speed 6.5 X Track quality 100.0 % Test CRC 5127D7F7 Copy CRC 5127D7F7 Track not present in AccurateRip database Copy OK

Track 3

Filename C:\[runner's rip]\Anima Mundi - Live In Europe (2012) [flac] {2-CD}\CD-2\03 - Cosmic Man.wav

Peak level 98.4 % Extraction speed 6.5 X Track quality 100.0 % Test CRC 8C22F74D Copy CRC 8C22F74D Track not present in AccurateRip database Copy OK

Track 4

Filename C:\[runner's rip]\Anima Mundi - Live In Europe (2012) [flac] {2-CD}\CD-2\04 - The Return.wav

Peak level 98.1 % Extraction speed 5.9 X Track quality 100.0 % Test CRC 7EF6A93A Copy CRC 7EF6A93A Track not present in AccurateRip database Copy OK

Track 5

Filename C:\[runner's rip]\Anima Mundi - Live In Europe (2012) [flac] {2-CD}\CD-2\05 - Firth Of Fifth (excerpt).wav

Peak level 98.4 % Extraction speed 6.1 X Track quality 100.0 % Test CRC 5D5A8965 Copy CRC 5D5A8965 Track not present in AccurateRip database Copy OK

None of the tracks are present in the AccurateRip database

No errors occurred

End of status report

==== Log checksum 50E7F1FE633F4C902482B22D150E246CAF21493D01DB638797624903CF0E66E5 ====
REM GENRE "Progressive Rock"REM DATE 2012REM DISCID 430CDD05REM COMMENT "ExactAudioCopy v1.0b1"PERFORMER "Anima Mundi"TITLE "Live In Europe CD2"FILE "01 - Spring Knocks On The Door Of Men.wav" WAVE TRACK 01 AUDIO TITLE "Spring Knocks On The Door Of Men" PERFORMER "Anima Mundi" INDEX 01 00:00:00FILE "02 - Flying To The Sun.wav" WAVE TRACK 02 AUDIO TITLE "Flying To The Sun" PERFORMER "Anima Mundi" INDEX 01 00:00:00FILE "03 - Cosmic Man.wav" WAVE TRACK 03 AUDIO TITLE "Cosmic Man" PERFORMER "Anima Mundi" INDEX 01 00:00:00FILE "04 - The Return.wav" WAVE TRACK 04 AUDIO TITLE "The Return" PERFORMER "Anima Mundi" INDEX 01 00:00:00FILE "05 - Firth Of Fifth (excerpt).wav" WAVE TRACK 05 AUDIO TITLE "Firth Of Fifth (excerpt)" PERFORMER "Anima Mundi" INDEX 01 00:00:00
-----------------------

DON'T MODIFY THIS FILE

-----------------------

PERFORMER: auCDtect Task Manager, ver. 1.5.1RC4 build 1.5.1.5Copyright (c) 2008-2010 y-soft. All rights reservedhttp://y-soft.org

ANALYZER: auCDtect: CD records authenticity detector, version 0.8.2Copyright (c) 2004 Oleg Berngardt. All rights reserved.Copyright (c) 2004 Alexander Djourik. All rights reserved.

FILE: 05 - Firth Of Fifth (excerpt).flac Size: 38197402 Hash: 40719BC82892360BB30D8814D064B45B Accuracy: -m8 Conclusion: CDDA 99% Signature: D544CCEA58AB0D5B6D32C1AEDB4C1EB75860C812FILE: 04 - The Return.flac Size: 23018608 Hash: F60194DA05DBAB503FA7AB566C057C07 Accuracy: -m8 Conclusion: CDDA 99% Signature: 5A6EA721CA1141EA8E230762465540E6705A0DC1FILE: 03 - Cosmic Man.flac Size: 69758511 Hash: 318D83717AA8A1A6B9853304F5C729E1 Accuracy: -m8 Conclusion: CDDA 62% Signature: 82C3CE612A4F70CC3AA6CEC37C540C2FF442623AFILE: 02 - Flying To The Sun.flac Size: 70645093 Hash: D546ED68D554E1FAB071A85A9B123461 Accuracy: -m8 Conclusion: CDDA 94% Signature: 64AB10EF79877930F2EE714E8B61DE7B42CE1243FILE: 01 - Spring Knocks On The Door Of Men.flac Size: 174752146 Hash: CA1A6AB29A66256EBC6F3EE6F2303F71 Accuracy: -m8 Conclusion: CDDA 87% Signature: 9E92AB25BFB86DA7E2F51B4F398C18A6E116A5C4
Доп. информация: Recording at Lakei in Helmond The Nederlands June 18th 2011 at Live Prog festival
Anima Mundi - кубинская группа, исполняющая нео-прогрессивный рок высокого уровня с использованием кларнета, фагота, волынок и других народных инструментов. Основа их музыки лежит в корнях прогрессива 70-ых, исполненного такими группами, как Yes и Genesis, но с очень современным подходом, который может конкурировать с Spocks Beard, The Flower Kings, Nektar, Cryptic Vision, Kaipa, Nexus, Glass Hammer и Cast.


Трекер:  [ 01-Янв-2013 11:23 ]

  

Скачать .torrent

Размер .torrent файла 15 KB


Размер: 692 MB
Хэш (hash) релиза: 69e5f43d000af934de1646580941f554871acd80

Еще никто не оставлял запись к записи скачать торрент Anima Mundi - Live in Europe . Будь первым!

!Обратная связь