Скачать через торрент музыку VA - Giant for Another Hour - MORE MUSIC INSPIRED BY AND IN TRIBUTE TO GENTLE GIANT - 2006, APE бесплатно без регистрации torrent

Если у вас наблюдаются проблемы со скриншотами, переходом по ссылками, скачиванием торрентов - проблемы в блокировщике рекламы AdBlock. #хорошегоДня!


Статистика раздачи
Размер:  421 MB   |    Зарегистрирован:  4 года 9 месяцев   |    .torrent скачан:  19 раз   |   
Раздают:  1  
   
Загрузка...
 
Автор Сообщение

Galfimbul

avatar Galfimbul


Giant for Another Hour - MORE MUSIC INSPIRED BY AND IN TRIBUTE TO GENTLE GIANT

Жанр: Progressive Rock
Страна-производитель диска: Sweden
Год издания: 2006
Издатель (лейбл): THE GORGG-TRIBE PARTNERSHIP
Номер по каталогу: GOS-003
Аудиокодек: APE (*.ape)
Тип рипа: image+.cue
Битрейт аудио: lossless
Продолжительность: 01:11:54
Источник (релизер): домашние закрома
Наличие сканов в содержимом раздачи: да
Треклист:
01. Let truth reveal the beast - Dan Bornemarck & Helena Josefsson (3:54)
02. As young as I'm old - Blissful Behemoth (2:06)
03. Eternal river - Glann Liljeblad (2:02)
04. Come to my land - Tomas Stark (3:20)
05. Giantiqque quartet - Tomas Stark (0:54)
06. Look out John - Joe Brozio (3:24)
07. Blitz - Ant Bowles (7:29)
08. Randy searches for hte original - Dionysus (3:07)
09. November twisted - Andy Kubicki & Glenn Liljeblad (6:06)
10. Giatique for a day - Andy Kubicki & Glenn Liljeblad (1:03)
11. Fragile hearts - Joe Brozio (2:50)
12. Adventures in syncopia - Tomas Stark (3:55)
13. Giantique giant - Tomas Stark (0:42)
14. The house in november - The Region of Where & Glenn Liljeblad (2:14)
15. East & west - Tomas Stark (6:12)
16. Sarcastic iconoclasts - The Region of Where (0:57)
17. The prince & the fox - David Kowalski (9:03)
18. From the botton of my shoes - The Region of Where (4:22)
19. Giantique aspire - The Region of Where (0:47)
20. A farewell - Glenn Burg (6:56)
Exact Audio Copy V1.0 beta 3 from 29. August 2011

Отчёт EAC об извлечении, выполненном 9. декабря 2012, 20:31

GORGG-Tribe / Giant for Another Hour

Дисковод: ASUS SDRW-08D1S-U Adapter: 1 ID: 0

Режим чтения : ДостоверностьИспользование точного потока : ДаОтключение кэша аудио : ДаИспользование указателей C2 : Нет

Коррекция смещения при чтении : 103Способность читать области Lead-in и Lead-out : НетЗаполнение пропущенных сэмплов тишиной : ДаУдаление блоков с тишиной в начале и конце : НетПри вычислениях CRC использовались нулевые сэмплы : ДаИнтерфейс : Встроенный Win32-интерфейс для Win NT/2000

Выходной формат : Пользовательский кодировщикВыбранный битрейт : 1024 kBit/sКачество : ВысокийДобавление ID3-тега : НетУтилита сжатия : C:\Program Files\Exact Audio Copy\Monkey's Audio\MAC.exeДополнительные параметры : %source% %dest% -c3000

TOC извлечённого CD

Трек | Старт | Длительность | Начальный сектор | Конечный сектор --------------------------------------------------------------------- 1 | 0:00.00 | 3:53.65 | 0 | 17539 2 | 3:53.65 | 2:08.32 | 17540 | 27171 3 | 6:02.22 | 2:04.42 | 27172 | 36513 4 | 8:06.64 | 3:19.68 | 36514 | 51506 5 | 11:26.57 | 0:55.18 | 51507 | 55649 6 | 12:22.00 | 3:26.12 | 55650 | 71111 7 | 15:48.12 | 7:30.30 | 71112 | 104891 8 | 23:18.42 | 3:09.07 | 104892 | 119073 9 | 26:27.49 | 6:06.42 | 119074 | 146565 10 | 32:34.16 | 1:05.37 | 146566 | 151477 11 | 33:39.53 | 2:50.49 | 151478 | 164276 12 | 36:30.27 | 3:55.02 | 164277 | 181903 13 | 40:25.29 | 0:44.28 | 181904 | 185231 14 | 41:09.57 | 2:16.19 | 185232 | 195450 15 | 43:26.01 | 6:13.73 | 195451 | 223498 16 | 49:39.74 | 0:59.31 | 223499 | 227954 17 | 50:39.30 | 9:06.43 | 227955 | 268947 18 | 59:45.73 | 4:23.20 | 268948 | 288692 19 | 64:09.18 | 0:47.73 | 288693 | 292290 20 | 64:57.16 | 6:56.29 | 292291 | 323519

Характеристики диапазона извлечения и сообщения об ошибках

Выбранный диапазон

Имя файла H:\!!!-МОИ РАЗДАЧИ-!!!\CD - новые\Giant for Another Hour (2006) - More Music Inspired By & in Tribute to Gentle Giant\GORGG-Tribe - Giant for Another Hour.wav

Пиковый уровень 100.0 % Скорость извлечения 2.2 X Качество диапазона 100.0 % CRC теста 3AD827FD CRC копии 3AD827FD Копирование... OK

Ошибок не произошло

Конец отчёта

---- CUETools DB Plugin V2.1.3

[CTDB TOCID: 8yBuRhSPRwVitTQYvKLVFdclXiw-] disk not present in database, Submit result: 8yBuRhSPRwVitTQYvKLVFdclXiw- has been uploaded

==== Контрольная сумма отчёта 70406DEED5D7108CA73CF9DA015EFDF306CD48ACF01D39BFA1024ACE40E413D1 ====
AUDIOCHECKER v2.0 beta (build 457) - by Dester - <a href="mailto:opdester@freemail.hu" class="postLink">opdester@freemail.hu</a>~~~~~~~~~~~~~~~~~~~~~~~~~~~~~~~~~~-=== НЕ РЕДАКТИРУЙТЕ ЭТОТ ФАЙЛ! ===-

Путь: ...\Giant for Another Hour (2006) - More Music Inspired By & in Tribute to Gentle Giant

01 -=- GORGG-Tribe - Giant for Another Hour.ape -=- CDDA (100%)

151712932
Доп. информация: Представленный трибьют вызвал у меня больше вопросов, чем... Нечто похожее есть на прог архивах, но тут и начинаются чудеса:
1 - разница в названии (сверху: у них - Giant for an hour; у меня - Giant for another hour, причём на обложке видно, что another написано поверх An). При этом сама картинка одна и та же.
2 - Там же снизу: у меня написано, more, а у них начинается с music.
3 - Количество вещей, их названия, исполнители, продолжительность диска и год издания - всё совершенно разное! Зато лейбл один и тот же!
4 - Ну и, наконец, музыкальное содержание, что-то я не очень понял, а что это такое?!
Короче, други, сплошной фантастический триллер, ну прям Стругацкие с Вайнерами! И ежели кто сможет прояснить ситуацию, буду очень и очень рад!!! Спасибо!

Трекер:  [ 01-Янв-2013 11:23 ]

  

Скачать .torrent

Размер .torrent файла 17 KB


Размер: 421 MB
Хэш (hash) релиза: 03ed17eb7ee478f70a66648fe0bc133ae2bdd92f

Еще никто не оставлял запись к записи скачать торрент VA - Giant for Another Hour - MORE MUSIC INSPIRED BY AND IN TRIBUTE TO GENTLE GIANT - 2006, APE . Будь первым!

!Обратная связь