Скачать через торрент музыку Steve MacLean - Bridges бесплатно без регистрации torrent

Если у вас наблюдаются проблемы со скриншотами, переходом по ссылками, скачиванием торрентов - проблемы в блокировщике рекламы AdBlock. #хорошегоДня!


Статистика раздачи
Размер:  482 MB   |    Зарегистрирован:  4 года 9 месяцев   |    .torrent скачан:  25 раз   |   
Раздают:  1  
   
Загрузка...
 
Автор Сообщение

Galfimbul

avatar Galfimbul


Steve MacLean / Bridges (2CD)

Жанр: Progressive Rock, Avant-Prog, Canterbury Style
Страна-производитель диска: US
Год издания: 2007
Издатель (лейбл): ReR Megacorp
Номер по каталогу: ReR SM2
Страна: US
Аудиокодек: FLAC (*.flac)
Тип рипа: tracks+.cue
Битрейт аудио: lossless
Продолжительность: 50:02 + 48:50
Источник (релизер): свой фирменный диск
Наличие сканов в содержимом раздачи: нет
Треклист:
1-1 No Jazz
1-2 One Little Life
1-3 Untitled
1-4 Guitar Loom 3
1-5 In And Around Susan
1-6 The Cliff
1-7 Trance 4
1-8 Splice
1-9 Retro
1-10 Maneuvers
2-1 In A Room I Saw You
2-2 Kora
2-3 Guitar Loom 3
2-4 2 Short
2-5 Surrounded #4
2-6 Truro #5
2-7 Bambiville Revisited
2-8 Guitar Loom 2
2-9 Bridges
2-10 Render
Exact Audio Copy V1.0 beta 3 from 29. August 2011

EAC extraction logfile from 29. December 2012, 17:09

Steve MacLean / Bridges CD1

Used drive : PIONEER DVD-RW DVR-115D Adapter: 0 ID: 0

Read mode : Secure
Utilize accurate stream : Yes
Defeat audio cache : Yes
Make use of C2 pointers : No

Read offset correction : 48
Overread into Lead-In and Lead-Out : No
Fill up missing offset samples with silence : Yes
Delete leading and trailing silent blocks : No
Null samples used in CRC calculations : Yes
Used interface : Installed external ASPI interface
Gap handling : Appended to previous track

Used output format : User Defined Encoder
Selected bitrate : 896 kBit/s
Quality : High
Add ID3 tag : No
Command line compressor : C:\Program Files\Exact Audio Copy\FLAC\FLAC.EXE
Additional command line options : -6 -V -T "ARTIST=%artist%" -T "TITLE=%title%" -T "ALBUM=%albumtitle%" -T "DATE=%year%" -T "TRACKNUMBER=%tracknr%" -T "GENRE=%genre%" -T "COMMENT=%comment%" -T "BAND=%albuminterpret%" -T "COMPOSER=%composer%" %haslyrics%--tag-from-file=LYRICS="%lyricsfile%"%haslyrics% -T "DISCNUMBER=%cdnumber%" -T "TOTALDISCS=%totalcds%" -T "TOTALTRACKS=%numtracks%" %hascover%--picture="%coverfile%"%hascover% %source% -o %dest%

TOC of the extracted CD

Track | Start | Length | Start sector | End sector
---------------------------------------------------------
1 | 0:00.00 | 6:43.74 | 0 | 30298
2 | 6:43.74 | 6:05.58 | 30299 | 57731
3 | 12:49.57 | 3:51.72 | 57732 | 75128
4 | 16:41.54 | 2:48.66 | 75129 | 87794
5 | 19:30.45 | 7:39.55 | 87795 | 122274
6 | 27:10.25 | 4:19.14 | 122275 | 141713
7 | 31:29.39 | 4:03.25 | 141714 | 159963
8 | 35:32.64 | 2:50.52 | 159964 | 172765
9 | 38:23.41 | 5:20.05 | 172766 | 196770
10 | 43:43.46 | 6:18.62 | 196771 | 225182

Track 1

Filename D:\zzz\01 - No Jazz.wav

Pre-gap length 0:00:02.00

Peak level 100.0 %
Extraction speed 4.7 X
Track quality 100.0 %
Test CRC 449F315B
Copy CRC 449F315B
Accurately ripped (confidence 1) [5EEE2A11] (AR v1)
Copy OK

Track 2

Filename D:\zzz\02 - One Little Life.wav

Peak level 99.0 %
Extraction speed 5.3 X
Track quality 100.0 %
Test CRC B1EFE2E7
Copy CRC B1EFE2E7
Accurately ripped (confidence 1) [8ACD6A8B] (AR v1)
Copy OK

Track 3

Filename D:\zzz\03 - Untitled.wav

Peak level 85.6 %
Extraction speed 5.5 X
Track quality 100.0 %
Test CRC EE4AEE25
Copy CRC EE4AEE25
Accurately ripped (confidence 1) [739BC19E] (AR v1)
Copy OK

Track 4

Filename D:\zzz\04 - Guitar Loom 3.wav

Pre-gap length 0:00:01.50

Peak level 70.1 %
Extraction speed 5.5 X
Track quality 100.0 %
Test CRC 84F6CD0C
Copy CRC 84F6CD0C
Accurately ripped (confidence 1) [3ADE880E] (AR v1)
Copy OK

Track 5

Filename D:\zzz\05 - In And Around Susan.wav

Pre-gap length 0:00:01.26

Peak level 80.5 %
Extraction speed 6.6 X
Track quality 100.0 %
Test CRC 30F44F16
Copy CRC 30F44F16
Accurately ripped (confidence 1) [07A157FF] (AR v1)
Copy OK

Track 6

Filename D:\zzz\06 - The Cliff.wav

Pre-gap length 0:00:02.60

Peak level 99.3 %
Extraction speed 6.7 X
Track quality 100.0 %
Test CRC 6D6FB291
Copy CRC 6D6FB291
Accurately ripped (confidence 1) [A2827520] (AR v1)
Copy OK

Track 7

Filename D:\zzz\07 - Trance 4.wav

Pre-gap length 0:00:02.19

Peak level 100.0 %
Extraction speed 4.9 X
Track quality 99.8 %
Test CRC 9BFC6C17
Copy CRC 9BFC6C17
Accurately ripped (confidence 1) [6B9D5ED9] (AR v1)
Copy OK

Track 8

Filename D:\zzz\08 - Splice.wav

Peak level 98.2 %
Extraction speed 6.7 X
Track quality 100.0 %
Test CRC F20F7993
Copy CRC F20F7993
Accurately ripped (confidence 1) [8775E1EA] (AR v1)
Copy OK

Track 9

Filename D:\zzz\09 - Retro.wav

Pre-gap length 0:00:02.34

Peak level 100.0 %
Extraction speed 7.5 X
Track quality 100.0 %
Test CRC B29A810E
Copy CRC B29A810E
Accurately ripped (confidence 1) [496AEE75] (AR v1)
Copy OK

Track 10

Filename D:\zzz\10 - Maneuvers.wav

Pre-gap length 0:00:29.55

Peak level 100.0 %
Extraction speed 7.3 X
Track quality 99.9 %
Test CRC 4E2D9869
Copy CRC 4E2D9869
Accurately ripped (confidence 1) [C707A345] (AR v1)
Copy OK

All tracks accurately ripped

No errors occurred

End of status report

==== Log checksum 11F4C16E7D4AB0F9F5A0FF09B5291B28C1DD1ED6820B89B0DA262C18EE6FB7EF ====
Exact Audio Copy V1.0 beta 3 from 29. August 2011

EAC extraction logfile from 29. December 2012, 17:32

Steve MacLean / Bridges CD2

Used drive : PIONEER DVD-RW DVR-115D Adapter: 0 ID: 0

Read mode : Secure
Utilize accurate stream : Yes
Defeat audio cache : Yes
Make use of C2 pointers : No

Read offset correction : 48
Overread into Lead-In and Lead-Out : No
Fill up missing offset samples with silence : Yes
Delete leading and trailing silent blocks : No
Null samples used in CRC calculations : Yes
Used interface : Installed external ASPI interface
Gap handling : Appended to previous track

Used output format : User Defined Encoder
Selected bitrate : 896 kBit/s
Quality : High
Add ID3 tag : No
Command line compressor : C:\Program Files\Exact Audio Copy\FLAC\FLAC.EXE
Additional command line options : -6 -V -T "ARTIST=%artist%" -T "TITLE=%title%" -T "ALBUM=%albumtitle%" -T "DATE=%year%" -T "TRACKNUMBER=%tracknr%" -T "GENRE=%genre%" -T "COMMENT=%comment%" -T "BAND=%albuminterpret%" -T "COMPOSER=%composer%" %haslyrics%--tag-from-file=LYRICS="%lyricsfile%"%haslyrics% -T "DISCNUMBER=%cdnumber%" -T "TOTALDISCS=%totalcds%" -T "TOTALTRACKS=%numtracks%" %hascover%--picture="%coverfile%"%hascover% %source% -o %dest%

TOC of the extracted CD

Track | Start | Length | Start sector | End sector
---------------------------------------------------------
1 | 0:00.00 | 3:43.41 | 0 | 16765
2 | 3:43.41 | 8:10.46 | 16766 | 53561
3 | 11:54.12 | 3:43.37 | 53562 | 70323
4 | 15:37.49 | 6:07.68 | 70324 | 97916
5 | 21:45.42 | 3:17.43 | 97917 | 112734
6 | 25:03.10 | 5:08.72 | 112735 | 135906
7 | 30:12.07 | 4:22.09 | 135907 | 155565
8 | 34:34.16 | 4:26.59 | 155566 | 175574
9 | 39:01.00 | 7:44.42 | 175575 | 210416
10 | 46:45.42 | 2:04.38 | 210417 | 219754

Track 1

Filename D:\zzz\01 - In A Room I Saw You.wav

Pre-gap length 0:00:02.00

Peak level 100.0 %
Extraction speed 4.2 X
Track quality 100.0 %
Test CRC 52CFA74D
Copy CRC 52CFA74D
Accurately ripped (confidence 1) [659489FF] (AR v1)
Copy OK

Track 2

Filename D:\zzz\02 - Kora.wav

Pre-gap length 0:00:01.12

Peak level 100.0 %
Extraction speed 5.3 X
Track quality 100.0 %
Test CRC 91C63A87
Copy CRC 91C63A87
Accurately ripped (confidence 1) [EB1A387A] (AR v1)
Copy OK

Track 3

Filename D:\zzz\03 - Guitar Loom 1.wav

Pre-gap length 0:00:01.10

Peak level 79.3 %
Extraction speed 4.8 X
Track quality 99.9 %
Test CRC 029D4B15
Copy CRC 029D4B15
Accurately ripped (confidence 1) [1D5C0692] (AR v1)
Copy OK

Track 4

Filename D:\zzz\04 - 2 Short.wav

Peak level 100.0 %
Extraction speed 3.7 X
Track quality 99.8 %
Test CRC D78EC008
Copy CRC D78EC008
Accurately ripped (confidence 1) [8462CBE7] (AR v1)
Copy OK

Track 5

Filename D:\zzz\05 - Surrounded #4.wav

Pre-gap length 0:00:01.60

Peak level 97.0 %
Extraction speed 6.0 X
Track quality 100.0 %
Test CRC 4761E673
Copy CRC 4761E673
Accurately ripped (confidence 1) [D7DD3D65] (AR v1)
Copy OK

Track 6

Filename D:\zzz\06 - Truro #5.wav

Peak level 41.2 %
Extraction speed 6.7 X
Track quality 100.0 %
Test CRC 5028FF3D
Copy CRC 5028FF3D
Accurately ripped (confidence 1) [074A876C] (AR v1)
Copy OK

Track 7

Filename D:\zzz\07 - Bambiville Revisited.wav

Peak level 84.0 %
Extraction speed 6.9 X
Track quality 100.0 %
Test CRC F92112F3
Copy CRC F92112F3
Accurately ripped (confidence 1) [9D0EC10A] (AR v1)
Copy OK

Track 8

Filename D:\zzz\08 - Guitar Loom 2.wav

Pre-gap length 0:00:01.62

Peak level 85.8 %
Extraction speed 5.2 X
Track quality 99.8 %
Test CRC 4FB891E3
Copy CRC 4FB891E3
Accurately ripped (confidence 1) [53046042] (AR v1)
Copy OK

Track 9

Filename D:\zzz\09 - Bridges.wav

Pre-gap length 0:00:02.69

Peak level 84.0 %
Extraction speed 7.9 X
Track quality 100.0 %
Test CRC D961AEAE
Copy CRC D961AEAE
Accurately ripped (confidence 1) [CEB4870E] (AR v1)
Copy OK

Track 10

Filename D:\zzz\10 - Render.wav

Pre-gap length 0:00:01.27

Peak level 63.9 %
Extraction speed 5.5 X
Track quality 99.9 %
Test CRC 590034BA
Copy CRC 590034BA
Accurately ripped (confidence 1) [790027B2] (AR v1)
Copy OK

All tracks accurately ripped

No errors occurred

End of status report

==== Log checksum 1B08D41760EFB28348351843B62C404BD2B7A101031AA55EF80259A8D0E1C7DD ====
REM GENRE "Progressive Rock"
REM DATE 2007
REM DISCID 6B0BBA0A
REM COMMENT "ExactAudioCopy v1.0b3"
PERFORMER "Steve MacLean"
TITLE "Bridges CD1"
FILE "01 - No Jazz.wav" WAVE
TRACK 01 AUDIO
TITLE "No Jazz"
PERFORMER "Steve MacLean"
INDEX 01 00:00:00
FILE "02 - One Little Life.wav" WAVE
TRACK 02 AUDIO
TITLE "One Little Life"
PERFORMER "Steve MacLean"
INDEX 01 00:00:00
FILE "03 - Untitled.wav" WAVE
TRACK 03 AUDIO
TITLE "Untitled"
PERFORMER "Steve MacLean"
INDEX 01 00:00:00
TRACK 04 AUDIO
TITLE "Guitar Loom 3"
PERFORMER "Steve MacLean"
INDEX 00 03:50:22
FILE "04 - Guitar Loom 3.wav" WAVE
INDEX 01 00:00:00
TRACK 05 AUDIO
TITLE "In And Around Susan"
PERFORMER "Steve MacLean"
INDEX 00 02:47:40
FILE "05 - In And Around Susan.wav" WAVE
INDEX 01 00:00:00
TRACK 06 AUDIO
TITLE "The Cliff"
PERFORMER "Steve MacLean"
INDEX 00 07:36:70
FILE "06 - The Cliff.wav" WAVE
INDEX 01 00:00:00
TRACK 07 AUDIO
TITLE "Trance 4"
PERFORMER "Steve MacLean"
INDEX 00 04:16:70
FILE "07 - Trance 4.wav" WAVE
INDEX 01 00:00:00
FILE "08 - Splice.wav" WAVE
TRACK 08 AUDIO
TITLE "Splice"
PERFORMER "Steve MacLean"
INDEX 01 00:00:00
TRACK 09 AUDIO
TITLE "Retro"
PERFORMER "Steve MacLean"
INDEX 00 02:48:18
FILE "09 - Retro.wav" WAVE
INDEX 01 00:00:00
TRACK 10 AUDIO
TITLE "Maneuvers"
PERFORMER "Steve MacLean"
INDEX 00 04:50:25
FILE "10 - Maneuvers.wav" WAVE
INDEX 01 00:00:00
REM GENRE "Progressive Rock"
REM DATE 2007
REM DISCID 7E0B720A
REM COMMENT "ExactAudioCopy v1.0b3"
PERFORMER "Steve MacLean"
TITLE "Bridges CD2"
FILE "01 - In A Room I Saw You.wav" WAVE
TRACK 01 AUDIO
TITLE "In A Room I Saw You"
PERFORMER "Steve MacLean"
INDEX 01 00:00:00
TRACK 02 AUDIO
TITLE "Kora"
PERFORMER "Steve MacLean"
INDEX 00 03:42:29
FILE "02 - Kora.wav" WAVE
INDEX 01 00:00:00
TRACK 03 AUDIO
TITLE "Guitar Loom 1"
PERFORMER "Steve MacLean"
INDEX 00 08:09:36
FILE "03 - Guitar Loom 1.wav" WAVE
INDEX 01 00:00:00
FILE "04 - 2 Short.wav" WAVE
TRACK 04 AUDIO
TITLE "2 Short"
PERFORMER "Steve MacLean"
INDEX 01 00:00:00
TRACK 05 AUDIO
TITLE "Surrounded #4"
PERFORMER "Steve MacLean"
INDEX 00 06:06:08
FILE "05 - Surrounded #4.wav" WAVE
INDEX 01 00:00:00
FILE "06 - Truro #5.wav" WAVE
TRACK 06 AUDIO
TITLE "Truro #5"
PERFORMER "Steve MacLean"
INDEX 01 00:00:00
FILE "07 - Bambiville Revisited.wav" WAVE
TRACK 07 AUDIO
TITLE "Bambiville Revisited"
PERFORMER "Steve MacLean"
INDEX 01 00:00:00
TRACK 08 AUDIO
TITLE "Guitar Loom 2"
PERFORMER "Steve MacLean"
INDEX 00 04:20:22
FILE "08 - Guitar Loom 2.wav" WAVE
INDEX 01 00:00:00
TRACK 09 AUDIO
TITLE "Bridges"
PERFORMER "Steve MacLean"
INDEX 00 04:23:65
FILE "09 - Bridges.wav" WAVE
INDEX 01 00:00:00
TRACK 10 AUDIO
TITLE "Render"
PERFORMER "Steve MacLean"
INDEX 00 07:43:15
FILE "10 - Render.wav" WAVE
INDEX 01 00:00:00
d:\>d:\aucdtect -d/-m0 d:\zzz\*.wavauCDtect: CD records authenticity detector, version 0.8.2Copyright (c) 2004 Oleg Berngardt. All rights reserved.Copyright (c) 2004 Alexander Djourik. All rights reserved.------------------------------------------------------------Processing file: [01. In A Room I Saw You.wav]

------------------------------------------------------------This track looks like CDDA with probability 99%

------------------------------------------------------------Processing file: [01. No Jazz.wav]

------------------------------------------------------------This track looks like CDDA with probability 100%

------------------------------------------------------------Processing file: [02. Kora.wav]

------------------------------------------------------------This track looks like CDDA with probability 100%

------------------------------------------------------------Processing file: [02. One Little Life.wav]

------------------------------------------------------------This track looks like MPEG with probability 95%

------------------------------------------------------------Processing file: [03. Guitar Loom 1.wav]

------------------------------------------------------------This track looks like CDDA with probability 100%

------------------------------------------------------------Processing file: [03. Untitled.wav]

------------------------------------------------------------This track looks like CDDA with probability 100%

------------------------------------------------------------Processing file: [04. 2 Short.wav]

------------------------------------------------------------This track looks like CDDA with probability 100%

------------------------------------------------------------Processing file: [04. Guitar Loom 3.wav]

------------------------------------------------------------This track looks like CDDA with probability 100%

------------------------------------------------------------Processing file: [05. In And Around Susan.wav]

------------------------------------------------------------This track looks like CDDA with probability 99%

------------------------------------------------------------Processing file: [05. Surrounded #4.wav]

------------------------------------------------------------This track looks like CDDA with probability 100%

------------------------------------------------------------Processing file: [06. The Cliff.wav]

------------------------------------------------------------This track looks like CDDA with probability 100%

------------------------------------------------------------Processing file: [06. Truro #5.wav]

------------------------------------------------------------This track looks like CDDA with probability 62%

------------------------------------------------------------Processing file: [07. Bambiville Revisited.wav]

------------------------------------------------------------This track looks like CDDA with probability 100%

------------------------------------------------------------Processing file: [07. Trance 4.wav]

------------------------------------------------------------This track looks like CDDA with probability 100%

------------------------------------------------------------Processing file: [08. Guitar Loom 2.wav]

------------------------------------------------------------This track looks like CDDA with probability 100%

------------------------------------------------------------Processing file: [08. Splice.wav]

------------------------------------------------------------This track looks like CDDA with probability 99%

------------------------------------------------------------Processing file: [09. Bridges.wav]

------------------------------------------------------------This track looks like CDDA with probability 100%

------------------------------------------------------------Processing file: [09. Retro.wav]

------------------------------------------------------------This track looks like CDDA with probability 100%

------------------------------------------------------------Processing file: [10. Maneuvers.wav]

------------------------------------------------------------This track looks like CDDA with probability 100%

------------------------------------------------------------Processing file: [10. Render.wav]

------------------------------------------------------------This track looks like CDDA with probability 54%

------------------------------------------------------------Final Conclusion:------------------------------------------------------------These tracks looks like CDDA with probability 100%
Доп. информация:
Unlike many of the young musicians who cut their teeth in New York's downtown avant-garde scene in the late 1970s and early '80s, guitarist and composer Steve MacLean makes music that is not only structurally complex and challenging, but also eminently listenable. That fact may owe more to his intervening years as a composer for films and commercials than it does to his years in the skronk trenches, but whatever the explanation, this two-disc retrospective is surprisingly fun to listen to. MacLean's influences are clear: "One Little Life" sounds like a less scrappy version of Henry Cow circa 1972; the twin guitar counterpoint of "Guitar Loom 1" has the dry, somewhat brittle prettiness of a quartal-harmony exercise by Paul Hindemith; "Maneuvers" refers back explicitly to early 20th century duodecaphony, and several other tracks would have sounded at home on one of Bill Nelson's early post-Be Bop Deluxe solo albums. None of this is to suggest that MacLean's music sounds derivative -- his sense of melody is his own, and his range of styles is very impressive -- rather, it means that his music will appeal to a wide variety of adventurous listeners and reflects a deep and broad mastery of postmodern musical concepts. Very highly recommended.
Acoustic Guitar [Guitars] – Buddy B (tracks: 1-4, 2-3, 2-8), Mike Gallant (tracks: 1-4, 2-3, 2-8), Steve MacLean (tracks: 1-4, 2-3, 2-8)
Alto Saxophone, Lyricon, Electronics – Jorrit Dijkstra
Bass – James McGirr (tracks: 1-2, 1-3, 1-6, 1-9)
Bass, Electronics – Dan Soltzberg
Drums [Drum Kit] – Dave Fields (tracks: 1-2, 1-3, 1-6, 1-9), Oliver Seagel
Guitar [Guitars], Electronics – Steve MacLean (tracks: 1-1 to 1-3, 1-5 to 2-2, 2-4 to 2-7, 2-9, 2-10)
Keyboards – Agnes Charlesworth (tracks: 1-2, 1-3, 1-6, 1-9)
Synthesizer [Analog] – Harris Iverson
Voice, Vibraphone [Vibes], Percussion, Double Bass [Upright Leaning Bass] – Melanie Hedlund (tracks: 2-1, 2-10)


Трекер:  [ 01-Янв-2013 11:23 ]

  

Скачать .torrent

Размер .torrent файла 21 KB


Размер: 482 MB
Хэш (hash) релиза: 42ad57bc74377debb2c58ef1ac53d62c8c5c0d50

Еще никто не оставлял запись к записи скачать торрент Steve MacLean - Bridges . Будь первым!

!Обратная связь