Скачать через торрент музыку Marathon - The First Run бесплатно без регистрации torrent

Если у вас наблюдаются проблемы со скриншотами, переходом по ссылками, скачиванием торрентов - проблемы в блокировщике рекламы AdBlock. #хорошегоДня!


Статистика раздачи
Размер:  949 MB   |    Зарегистрирован:  4 года 7 месяцев   |    .torrent скачан:  29 раз   |   
Раздают:  1  
   
Загрузка...
 
Автор Сообщение

Galfimbul

avatar Galfimbul


Marathon - The First Run
*******


Обычная и ремастированная версии
Marathon - The First Run

Жанр: Neo Progressive
Год выпуска диска: 1994
Страна: Netherlands
Label: Marathon (self released)
Catalog Nr.: 499120/05/01
Аудио кодек: FLAC
Тип рипа: image+.cue (test&copy)
Битрейт аудио: lossless
Продолжительность: 67:38
Источник: Maik


Трэклист:

1. Beyond The Veil
2. Man In The Mirror
3. The Seventh Dimension
4. Medicine Man
5. I'll Be There
6. Open Field
7. Voices
8. The Patterns Of The Landscape
9. Red Ride
10. A Wall

Total Time: 67:38

Музыканты:

- Erik ten Bos / lead and backing vocals
- Ronald ten Bos / guitar
- Tony ten Wolde / keyboards
- Willem van der Horst / drums and percussion
- Jacques Suurmond / bass and bass pedals

Guest musicians:
- Michiel Oldenkamp / Alto saxophone on "Man In The Mirror"
- Anneloes Verveld / vocals "Voices"
Exact Audio Copy V0.99 prebeta 5 from 4. May 2009

EAC extraction logfile from 20. October 2009, 18:41

Marathon / The First Run

Used drive : HL-DT-STDVD-ROM GDR8164B Adapter: 2 ID: 1

Read mode : Secure
Utilize accurate stream : Yes
Defeat audio cache : Yes
Make use of C2 pointers : No

Read offset correction : 102
Overread into Lead-In and Lead-Out : No
Fill up missing offset samples with silence : Yes
Delete leading and trailing silent blocks : No
Null samples used in CRC calculations : Yes
Used interface : Native Win32 interface for Win NT & 2000

Used output format : User Defined Encoder
Selected bitrate : 1024 kBit/s
Quality : High
Add ID3 tag : No
Command line compressor : C:\Programs\EAC\flac.exe
Additional command line options : -V -8 -T "artist=%a" -T "title=%t" -T "album=%g" -T "date=%y" -T "tracknumber=%n" -T "genre=%m" %s

TOC of the extracted CD

Track | Start | Length | Start sector | End sector
---------------------------------------------------------
1 | 0:00.00 | 6:37.22 | 0 | 29796
2 | 6:37.22 | 6:18.30 | 29797 | 58176
3 | 12:55.52 | 7:39.48 | 58177 | 92649
4 | 20:35.25 | 6:39.63 | 92650 | 122637
5 | 27:15.13 | 5:31.57 | 122638 | 147519
6 | 32:46.70 | 5:19.53 | 147520 | 171497
7 | 38:06.48 | 8:12.40 | 171498 | 208437
8 | 46:19.13 | 9:37.20 | 208438 | 251732
9 | 55:56.33 | 5:47.32 | 251733 | 277789
10 | 61:43.65 | 5:54.05 | 277790 | 304344

Range status and errors

Selected range

Filename C:\EAC\0Flac\Marathon - The First Run.wav

Peak level 100.0 %
Range quality 100.0 %
Test CRC 3C2C5CE2
Copy CRC 3C2C5CE2
Copy OK

No errors occurred

AccurateRip summary

Track 1 accurately ripped (confidence 2) [D1869336]
Track 2 accurately ripped (confidence 2) [5A0B088E]
Track 3 accurately ripped (confidence 2) [E7F02BFB]
Track 4 accurately ripped (confidence 2) [1578156B]
Track 5 accurately ripped (confidence 2) [2E1681FA]
Track 6 accurately ripped (confidence 2) [3A831D62]
Track 7 accurately ripped (confidence 2) [5A6D374E]
Track 8 accurately ripped (confidence 2) [A3D15EF6]
Track 9 accurately ripped (confidence 2) [D3291034]
Track 10 accurately ripped (confidence 2) [1B3A7991]

All tracks accurately ripped

End of status report
[CUETools log; Date: 28.12.2012 22:24:31; Version: 2.1.4]
[CTDB TOCID: e5Jmflb5AubsS6bukW9RAZzvv9I-] found.
Track | CTDB Status
1 | (3/3) Accurately ripped
2 | (3/3) Accurately ripped
3 | (3/3) Accurately ripped
4 | (3/3) Accurately ripped
5 | (3/3) Accurately ripped
6 | (3/3) Accurately ripped
7 | (3/3) Accurately ripped
8 | (3/3) Accurately ripped
9 | (3/3) Accurately ripped
10 | (3/3) Accurately ripped
[AccurateRip ID: 0019664a-00cbe48e-aa0fd90a] found.
Track [ CRC | V2 ] Status
01 [d1869336|6a331985] (5+0/5) Accurately ripped
02 [5a0b088e|079c1541] (5+0/5) Accurately ripped
03 [e7f02bfb|73eb6100] (5+0/5) Accurately ripped
04 [1578156b|2d6880be] (5+0/5) Accurately ripped
05 [2e1681fa|9bcff5f7] (5+0/5) Accurately ripped
06 [3a831d62|54e668b5] (5+0/5) Accurately ripped
07 [5a6d374e|38559454] (5+0/5) Accurately ripped
08 [a3d15ef6|6a043e21] (5+0/5) Accurately ripped
09 [d3291034|af33a432] (5+0/5) Accurately ripped
10 [1b3a7991|86a9c499] (5+0/5) Accurately ripped

Track Peak [ CRC32 ] [W/O NULL] [ LOG ]
-- 100,0 [3C2C5CE2] [B1438D20] CRC32
01 100,0 [746EC758] [1A3B866A]
02 99,4 [DDCBDB90] [2E578F7F]
03 100,0 [D23D2DD3] [B4F00FD1]
04 97,6 [16244A02] [4AC3B934]
05 100,0 [69C49F55] [A4DFE342]
06 100,0 [449F92B2] [E9888F81]
07 100,0 [8469B556] [52E46941]
08 96,8 [53B219EF] [D9A4C695]
09 100,0 [3E4A6163] [BAAA367A]
10 100,0 [0BF1143A] [81031F7A]
Marathon - The First Run

Жанр: Neo Progressive
Год выпуска диска: 2012 (1994)
Страна: Netherlands
Label: Marathon (self released)
Catalog Nr.: 499120/05/04
Аудио кодек: FLAC
Тип рипа: image+.cue (test&copy)
Битрейт аудио: lossless
Продолжительность: 67:58
Источник: свой рип

Трэклист:

1. Beyond The Veil
2. Man In The Mirror
3. The Seventh Dimension
4. Medicine Man
5. I'll Be There
6. Open Field
7. Voices
8. The Patterns Of The Landscape
9. Red Ride
10. A Wall

Total Time: 67:58

Музыканты:

- Erik ten Bos / lead and backing vocals
- Ronald ten Bos / guitar
- Tony ten Wolde / keyboards
- Willem van der Horst / drums and percussion
- Jacques Suurmond / bass and bass pedals

Guest musicians:
- Michiel Oldenkamp / Alto saxophone on "Man In The Mirror"
- Anneloes Verveld / vocals "Voices"
Exact Audio Copy V1.0 beta 3 from 29. August 2011

EAC extraction logfile from 29. December 2012, 19:39

Marathon / The First Run (remastered)

Used drive : ASUS DRW-24B1LT Adapter: 4 ID: 0

Read mode : Secure
Utilize accurate stream : Yes
Defeat audio cache : Yes
Make use of C2 pointers : No

Read offset correction : 6
Overread into Lead-In and Lead-Out : No
Fill up missing offset samples with silence : Yes
Delete leading and trailing silent blocks : No
Null samples used in CRC calculations : Yes
Used interface : Native Win32 interface for Win NT & 2000

Used output format : User Defined Encoder
Selected bitrate : 1024 kBit/s
Quality : High
Add ID3 tag : Yes
Command line compressor : C:\Program Files (x86)\FLAC\flac.exe
Additional command line options : -6 -V -T "ARTIST=%artist%" -T "TITLE=%title%" -T "ALBUM=%albumtitle%" -T "DATE=%year%" -T "TRACKNUMBER=%tracknr%" -T "GENRE=%genre%" -T "COMMENT=%comment%" %source% -o %dest%

TOC of the extracted CD

Track | Start | Length | Start sector | End sector
---------------------------------------------------------
1 | 0:00.00 | 6:39.54 | 0 | 29978
2 | 6:39.54 | 6:20.37 | 29979 | 58515
3 | 13:00.16 | 7:41.55 | 58516 | 93145
4 | 20:41.71 | 6:41.70 | 93146 | 123290
5 | 27:23.66 | 5:33.64 | 123291 | 148329
6 | 32:57.55 | 5:21.60 | 148330 | 172464
7 | 38:19.40 | 8:14.47 | 172465 | 209561
8 | 46:34.12 | 9:39.27 | 209562 | 253013
9 | 56:13.39 | 5:49.39 | 253014 | 279227
10 | 62:03.03 | 5:54.69 | 279228 | 305846

Range status and errors

Selected range

Filename Y:\EAC\wurensh\Marathon\Marathon - The First Run (remastered).wav

Peak level 97.7 %
Extraction speed 3.5 X
Range quality 99.9 %
Test CRC 9247BF9D
Copy CRC 9247BF9D
Copy OK

No errors occurred

AccurateRip summary

Track 1 not present in database
Track 2 not present in database
Track 3 not present in database
Track 4 not present in database
Track 5 not present in database
Track 6 not present in database
Track 7 not present in database
Track 8 not present in database
Track 9 not present in database
Track 10 not present in database

None of the tracks are present in the AccurateRip database

End of status report
Уж не знаю, что там ремастировали они в своём дебютнике. Но по звучанию альбомы реально отличаются. Причём, не могу сказть, что "ремастер" в лучшую сторону. На представленных сканах TAU анализатора разница (по первому треку) также заметна.
Возможно, скорее стОит говорить о "кардинальном" перевыпуске альбома (уж коли он самиздатовский изначально). Тем не менее, соответствующая надпись имеет место и с этим нельзя не считаться.
Рип (трёхлетней давности) обычного издания любезно предоставлен ув.Maik. Ремастированный диск взят из коллекции ув.hyperborea70, в которой он недавно появился. Им и адресуются ваши благодарности.
В буклетах я не обнаружил отличий, за исключенем надписи "remastered" на фронткавере свежего издания. Различаются TOC и CRC. Немного отличается оформление блина и, собственно, номер (см. выше).
Приятного прослушивания, ознакомления и сравнения изданий.
Progarchives info
Коврики 300dpi в комплекте к каждому альбому.
***** Всех с наступающим Новым Годом!!! *****

Трекер:  [ 01-Янв-2013 11:23 ]

  

Скачать .torrent

Размер .torrent файла 21 KB


Размер: 949 MB
Хэш (hash) релиза: 27eeb23c0ade17317df453fa9b7e772fdca31b3d

Еще никто не оставлял запись к записи скачать торрент Marathon - The First Run . Будь первым!

!Обратная связь