Скачать через торрент For You.Earth - Дискография бесплатно русская версия torrent активатор

Если у вас наблюдаются проблемы со скриншотами, переходом по ссылками, скачиванием торрентов - проблемы в блокировщике рекламы AdBlock. #хорошегоДня!


Статистика раздачи
Размер:  541 MB   |    Зарегистрирован:  4 года 9 месяцев   |    .torrent скачан:  23 раза   |   
Раздают:  1  
   
Загрузка...
 
Автор Сообщение

Galfimbul

avatar Galfimbul


Год: 2009-2012
Страна: Россия
Жанр: Chaotic Hardcore
Тип издания: оригинал
Продолжительность: 31:35
Тексты: вшиты
Кодек: ALAC
Программа-риповщик : foobar2000 + iTunes (lossless)
Битрейт: lossless
Год: 2009
Страна: Россия
Жанр: Chaotic Hardcore
Тип издания: оригинал
Продолжительность: 31:35
Тексты: вшиты
Кодек: ALAC
Программа-риповщик : foobar2000 + iTunes (lossless)
Битрейт: lossless
Треклист:
1. Кем ты хочешь быть прощён? (3:14)
2. Кровь и песок / Blood And Sand (2:33)
3. Сжигали всё что осталось (3:20)
4. Больше огня (2:34)
5. Мы все боимся / Океан (5:38)
6. Cледы сигнальных ракет (1:23)
7. Время высоких скоростей (2:43)
8. Рука в руке (3:47)
9. Каждый новый день (6:27)
Exact Audio Copy V0.99 prebeta 5 from 4. May 2009

EAC extraction logfile from 5. June 2010, 12:15

FOR YOU. EARTH / THE OLDEST SONGS

Used drive : Optiarc DVD RW AD-7243S Adapter: 0 ID: 0

Read mode : SecureUtilize accurate stream : YesDefeat audio cache : YesMake use of C2 pointers : No

Read offset correction : 48Overread into Lead-In and Lead-Out : NoFill up missing offset samples with silence : YesDelete leading and trailing silent blocks : NoNull samples used in CRC calculations : YesUsed interface : Native Win32 interface for Win NT & 2000

Used output format : Internal WAV RoutinesSample format : 44.100 Hz; 16 Bit; Stereo

TOC of the extracted CD

Track | Start | Length | Start sector | End sector --------------------------------------------------------- 1 | 0:00.00 | 3:14.30 | 0 | 14579 2 | 3:14.30 | 2:32.68 | 14580 | 26047 3 | 5:47.23 | 3:19.57 | 26048 | 41029 4 | 9:07.05 | 2:34.13 | 41030 | 52592 5 | 11:41.18 | 5:38.15 | 52593 | 77957 6 | 17:19.33 | 1:22.42 | 77958 | 84149 7 | 18:42.00 | 2:43.36 | 84150 | 96410 8 | 21:25.36 | 3:47.01 | 96411 | 113436 9 | 25:12.37 | 6:26.57 | 113437 | 142443

Range status and errors

Selected range

Filename D:\Музыка\-=lossless=-\FOR YOU. EARTH\2009 Opposing Music\[none] 2009 THE OLDEST SONGS\FOR YOU. EARTH - THE OLDEST SONGS.wav

Peak level 97.7 % Range quality 100.0 % Test CRC 55C37641 Copy CRC 55C37641 Copy OK

No errors occurred

AccurateRip summary

Track 1 cannot be verified as accurate (confidence 1) [A5F6B6A3], AccurateRip returned [8BF21DE7]Track 2 cannot be verified as accurate (confidence 1) [AA2E299B], AccurateRip returned [74157908]Track 3 cannot be verified as accurate (confidence 1) [9F1C8CC7], AccurateRip returned [9069650E]Track 4 cannot be verified as accurate (confidence 1) [CD3C6D60], AccurateRip returned [90749A59]Track 5 cannot be verified as accurate (confidence 1) [EB733DA2], AccurateRip returned [F52805D5]Track 6 cannot be verified as accurate (confidence 1) [88089EA0], AccurateRip returned [D93B70DA]Track 7 cannot be verified as accurate (confidence 1) [EADD09B4], AccurateRip returned [07925E3F]Track 8 cannot be verified as accurate (confidence 1) [FB19CDE4], AccurateRip returned [D961DC52]Track 9 cannot be verified as accurate (confidence 1) [A507D6F9], AccurateRip returned [C89533E2]

No tracks could be verified as accurateYou may have a different pressing from the one(s) in the database

End of status report
ссылка на источник http://unionpeer.org/forum/viewtopic.php?t=2261631
Год: 2012
Страна: Россия
Жанр: Chaotic Hardcore
Тип издания: bandcamp
Продолжительность: 40:44
Тексты: вшиты
Кодек: ALAC
Программа-риповщик : foobar2000 + iTunes (lossless)
Битрейт: lossless
Треклист:
01. Верность
02. Открой свои глаза
03. Песня мертвых
04. Ночь нас зовёт
05. Горы бьют в барабаны
06. Цари из грязи
07. Время против нас
08. Покой
09. Проснись
10. Начало


Трекер:  [ 02-Янв-2013 14:09 ]

  

Скачать .torrent

Размер .torrent файла 13 KB


Размер: 541 MB
Хэш (hash) релиза: 0e16f0a75246529dea70b7e410541df4034971ca

Еще никто не оставлял запись к записи скачать торрент For You.Earth - Дискография . Будь первым!

!Обратная связь