Скачать через торрент музыку Cat Stevens - Foreigner - 2010, FLAC бесплатно без регистрации torrent

Если у вас наблюдаются проблемы со скриншотами, переходом по ссылками, скачиванием торрентов - проблемы в блокировщике рекламы AdBlock. #хорошегоДня!


Статистика раздачи
Размер:  217 MB   |    Зарегистрирован:  4 года 7 месяцев   |    .torrent скачан:  19 раз   |   
Раздают:  1  
   
Загрузка...
 
Автор Сообщение

Galfimbul

avatar Galfimbul


Cat Stevens / Foreigner

Жанр: Prog related/ Folk Rock
Страна-производитель диска: Germany
Год издания: 2010
Издатель (лейбл): Universal/Island
Номер по каталогу: IMCD272/546 887-2
Страна: UK-England
Аудиокодек: FLAC (*.flac)
Тип рипа: image+.cue
Битрейт аудио: lossless
Продолжительность: 0:36:07.05
Источник (релизер): личный диск
Наличие сканов в содержимом раздачи: да
Треклист:

01. Foreigner Suite [0:18:21.08]
02. The Hurt [0:04:19.62]
03. How Many Times [0:04:29.43]
04. Later [0:04:46.30]
05. 100 I Dream [0:04:10.12]
Exact Audio Copy V1.0 beta 3 from 29. August 2011

Отчёт EAC об извлечении, выполненном 29. декабря 2012, 18:13

Cat Stevens / Foreigner

Дисковод: TSSTcorpCDDVDW TS-L633J Adapter: 0 ID: 1

Режим чтения : ДостоверностьИспользование точного потока : ДаОтключение кэша аудио : ДаИспользование указателей C2 : Нет

Коррекция смещения при чтении : 6Способность читать области Lead-in и Lead-out : НетЗаполнение пропущенных сэмплов тишиной : ДаУдаление блоков с тишиной в начале и конце : НетПри вычислениях CRC использовались нулевые сэмплы : ДаИнтерфейс : Установленный внешний ASPI-интерфейс

Выходной формат : Пользовательский кодировщикВыбранный битрейт : 128 kBit/sКачество : ВысокийДобавление ID3-тега : НетУтилита сжатия : C:\Program Files\Exact Audio Copy\FLAC\FLAC.EXEДополнительные параметры : -6 -V -T "ARTIST=%artist%" -T "TITLE=%title%" -T "ALBUM=%albumtitle%" -T "DATE=%year%" -T "TRACKNUMBER=%tracknr%" -T "GENRE=%genre%" -T "COMMENT=%comment%" -T "BAND=%albuminterpret%" -T "ALBUMARTIST=%albuminterpret%" -T "COMPOSER=%composer%" %haslyrics%--tag-from-file=LYRICS="%lyricsfile%"%haslyrics% -T "DISCNUMBER=%cdnumber%" -T "TOTALDISCS=%totalcds%" -T "TOTALTRACKS=%numtracks%" %hascover%--picture="%coverfile%"%hascover% %source% -o %dest%

TOC извлечённого CD

Трек | Старт | Длительность | Начальный сектор | Конечный сектор --------------------------------------------------------------------- 1 | 0:00.32 | 18:21.08 | 32 | 82614 2 | 18:21.40 | 4:19.62 | 82615 | 102101 3 | 22:41.27 | 4:29.43 | 102102 | 122319 4 | 27:10.70 | 4:46.30 | 122320 | 143799 5 | 31:57.25 | 4:10.12 | 143800 | 162561

Характеристики диапазона извлечения и сообщения об ошибках

Выбранный диапазон

Имя файла D:\РИПЫ\CAT STEVENS\Cat Stevens - Foreigner.wav

Пиковый уровень 99.8 % Скорость извлечения 2.6 X Качество диапазона 100.0 % CRC теста 047B5BD9 CRC копии 047B5BD9 Копирование... OK

Ошибок не произошло

AccurateRip: сводка

Трек 1 отсутствует в базе данныхТрек 2 отсутствует в базе данныхТрек 3 отсутствует в базе данныхТрек 4 отсутствует в базе данныхТрек 5 отсутствует в базе данных

Ни одного трека нет в базе AccurateRip

Конец отчёта

---- CUETools DB Plugin V2.1.3

[CTDB TOCID: 2w4wSpAATsO1Z6blmoBbVLyNWLM-] disk not present in database, Submit result: discs with pregaps not supported in this protocol version

==== Контрольная сумма отчёта BAE69B17CECE226D26CCAE91D355E81679A41270C1873EA68706828FC058B942 ====
Born Steve Georgiou Jul 21, 1947 in London, England- Stevens recorded several albums of excellent folk inspired music and was one of the more 'high profile' innovators of this movement with several 'hit' singles to his credit. His later conversion to fundementalist Islam has drawn sharp criticism over the years, while his music continues to inspire with it's high quality and innovation. The ProGGnosis discography is restricted to a single release, Foreigner which is strongly progressive.
http://www.proggnosis.com/ARTIST_Detail.aspx?AID=1511
Самый прогрессивный и арт-роковый альбом Стивенса.
Рекомендуется тем поклонникам арт-рока, для которых 70-е не просто временной отрезок 20-го века...
Cat Stevens: Organ, Acoustic Guitar, Bass, Guitar, Piano, Strings, Composer, Keyboards, Electric Piano, Vocals, Clavinet, Producer, Arp, Fender Rhodes, String Arrangements, Brass Arrangement, Woodwind Arrangement, Fender Piano.

With: Patti Austin,
Barbara Massey,
Tasha Thomas
Vocals, Voices
--------------------------------------------------------------------------------
Phil Upchurch
Guitar
--------------------------------------------------------------------------------
Paul Martinez,
Herbie Flowers
Bass
--------------------------------------------------------------------------------
Gerry Conway
Percussion, Drums, Vocals
--------------------------------------------------------------------------------
Bernard Purdie "Pretty"
Drums
--------------------------------------------------------------------------------
Jean RousselBass, Strings, Keyboards, Electric Piano


Трекер:  [ 01-Янв-2013 11:18 ]

  

Скачать .torrent

Размер .torrent файла 17 KB


Размер: 217 MB
Хэш (hash) релиза: 1d8e27735196a5391098b863a2d886701271398d

Еще никто не оставлял запись к записи скачать торрент Cat Stevens - Foreigner - 2010, FLAC . Будь первым!

!Обратная связь