Скачать через торрент музыку Djam Karet - Live at Orion - 1999, APE бесплатно без регистрации torrent

Если у вас наблюдаются проблемы со скриншотами, переходом по ссылками, скачиванием торрентов - проблемы в блокировщике рекламы AdBlock. #хорошегоДня!


Статистика раздачи
Размер:  423 MB   |    Зарегистрирован:  4 года 7 месяцев   |    .torrent скачан:  17 раз   |   
Раздают:  1  
   
Загрузка...
 
Автор Сообщение

Galfimbul

avatar Galfimbul


Djam Karet / Live at Orion

Жанр: Eclectic Prog / Progressive Rock
Страна-производитель диска: USA
Год издания: 1999
Издатель (лейбл): Cuneiform Records
Номер по каталогу: Rune 119
Страна: USA
Аудиокодек: APE (*.ape)
Тип рипа: image+.cue
Битрейт аудио: lossless
Продолжительность: 01:14:22
Источник (релизер): домашние закрома
Наличие сканов в содержимом раздачи: да
Треклист:
1. Technology and Industry (5:16)
2. Familiar Winds (12:12)
3. Forbidden by Rule (8:00)
4. Reflections from the Firepool (9:30)
5. Province 19: The Visage of War (8:13)
6. Shaman's Descent (7:33)
7. Jammin' at Mike & J's (14:13)
8. Run Cerberus Run (9:24)
Exact Audio Copy V1.0 beta 3 from 29. August 2011

Отчёт EAC об извлечении, выполненном 9. декабря 2012, 18:21

Djam Karet / Live at Orion

Дисковод: ASUS SDRW-08D1S-U Adapter: 1 ID: 0

Режим чтения : ДостоверностьИспользование точного потока : ДаОтключение кэша аудио : ДаИспользование указателей C2 : Нет

Коррекция смещения при чтении : 103Способность читать области Lead-in и Lead-out : НетЗаполнение пропущенных сэмплов тишиной : ДаУдаление блоков с тишиной в начале и конце : НетПри вычислениях CRC использовались нулевые сэмплы : ДаИнтерфейс : Встроенный Win32-интерфейс для Win NT/2000

Выходной формат : Пользовательский кодировщикВыбранный битрейт : 1024 kBit/sКачество : ВысокийДобавление ID3-тега : НетУтилита сжатия : C:\Program Files\Exact Audio Copy\Monkey's Audio\MAC.exeДополнительные параметры : %source% %dest% -c3000

TOC извлечённого CD

Трек | Старт | Длительность | Начальный сектор | Конечный сектор --------------------------------------------------------------------- 1 | 0:00.00 | 5:18.10 | 0 | 23859 2 | 5:18.10 | 12:15.45 | 23860 | 79029 3 | 17:33.55 | 8:02.05 | 79030 | 115184 4 | 25:35.60 | 9:32.55 | 115185 | 158139 5 | 35:08.40 | 8:15.20 | 158140 | 195284 6 | 43:23.60 | 7:35.62 | 195285 | 229471 7 | 50:59.47 | 14:15.58 | 229472 | 293654 8 | 65:15.30 | 9:24.62 | 293655 | 336016

Характеристики диапазона извлечения и сообщения об ошибках

Выбранный диапазон

Имя файла H:\!!!-МОИ РАЗДАЧИ-!!!\CD - новые\Djam Karet (1999) - Live at Orion\Djam Karet - Live at Orion.wav

Пиковый уровень 100.0 % Скорость извлечения 2.1 X Качество диапазона 99.9 % CRC теста 325502DC CRC копии 325502DC Копирование... OK

Ошибок не произошло

Конец отчёта

---- CUETools DB Plugin V2.1.3

[CTDB TOCID: g4ryPj7CV9.hORv.VUTBlh_8j20-] found, Submit result: g4ryPj7CV9.hORv.VUTBlh_8j20- has been confirmed[56287906] (5/5) Accurately ripped

==== Контрольная сумма отчёта D01121BDAEC065FD50EDA1981CE6EF675AD78FCF8560D344984DA3386567C44A ====
AUDIOCHECKER v2.0 beta (build 457) - by Dester - <a href="mailto:opdester@freemail.hu" class="postLink">opdester@freemail.hu</a>~~~~~~~~~~~~~~~~~~~~~~~~~~~~~~~~~~-=== НЕ РЕДАКТИРУЙТЕ ЭТОТ ФАЙЛ! ===-

Путь: ...\Djam Karet (1999) - Live at Orion

01 -=- Djam Karet - Live at Orion.ape -=- CDDA (100%)

257464740
Djam Karet was formed in 1984 in Los Angeles, CA, by a group of musicians who wanted to play improvisational rock music: Gayle Ellet (guitar), Mike Henderson (guitar), Chuck Oken Jr. (drums), and Henry Osborne (bass). Although the band never lost interest in instrumental progressive rock, they would later expand and experiment with droning ambient music that was years ahead of the explosion of similar styles in the late '90s. The group returned to their unique brand...
One of the first new prog bands to emerge on the 80's and 90's scene. The music is hard to categorize, switching among many different moods and styles, sometimes with psychedelic influences. Long improvisations, and main influences are OZRIC TENTACLES and KING CRIMSON. "The Devouring" and "Burning The Hard City" are considered by many to be one of the best prog albums released in the 90s. DJAM KARET have taken their trademark sound of blistering guitar solos, atmospheric passages, and instrumental prowess and added old school prog rock keyboards. The resultant music is a great delight for the guitar fan as well as the adventurous rock listener.
After 15 years of existence, the instrumental prog band Djam Karet delivered its first official live album. Live at Orion is from a show recorded at Baltimore's Orion Sound Studios on September 25 and 26, 1998, as Djam Karet was giving its first performances on the American East Coast. The album starts with "Technology and Industry," a rocking number that was originally on The Ritual Continues. Two more tracks, "Familiar Winds" and "Shaman's Descent," both more trippy, are also lifted from that record. It seems the band chose to focus on older material for this live CD, since The Devouring, their previous studio release, is only represented by "Forbidden By Rule." But there is "Run Cerberus Run" and "Reflections From the Firepool" from the record named after the latter tune, as well as "Province 19" (probably Djam Karet's heaviest tune) from Burning the Hard City. The recording is completed by an atmospheric 14-minute jam. The sound quality is excellent and, as in every show recorded at Orion, you feel as if you are there. The playing is strong and uplifting, although "Run Cerberus Run" lacks some punch. The guys must have been getting tired. Djam Karet's distinctive sound signature is the band's dual guitars, underpinned by bass and drums. An occasional synth brings some atmospheric touches. Tunes usually develop from a riff repeated as the two guitarists trade solos. Live at Orion is a good way to get acquainted with Djam Karet and a nice addition to the fan's collection.
- Gayle Ellett / electric guitar, keyboards, effects
- Mike Henderson / electric guitar
- Chuck Oken Jr. / drums, keyboards, effects
- Henry J. Osborne / electric bass, bottled bass


Трекер:  [ 01-Янв-2013 11:18 ]

  

Скачать .torrent

Размер .torrent файла 17 KB


Размер: 423 MB
Хэш (hash) релиза: 47c7ad766c1efe16b08b63a73602385e536a71e3

Еще никто не оставлял запись к записи скачать торрент Djam Karet - Live at Orion - 1999, APE . Будь первым!

!Обратная связь