Скачать через торрент музыку Neil Young - Discography бесплатно без регистрации torrent

Если у вас наблюдаются проблемы со скриншотами, переходом по ссылками, скачиванием торрентов - проблемы в блокировщике рекламы AdBlock. #хорошегоДня!


Статистика раздачи
Размер:  18.46 GB   |    Зарегистрирован:  4 года 10 месяцев   |    .torrent скачан:  30 раз   |   
Раздают:  1  
   
Загрузка...
 
Автор Сообщение

Galfimbul

avatar Galfimbul


Neil Young - Discography (34 studio albums + 1 Live) (36 CD)

Жанр: singer/songwriter, folk-rock, country-rock, psychedelic rock
Страна: USA, Canada
Годы выхода альбомов: 1968 - 2012
Аудио кодек: FLAC
Тип рипа: image+.cue
Битрейт аудио: lossless
Сканы: Hi-Res, Low-Res - на выбор
Все рипы выполнены с фирменных дисков из личной коллекции, Secure mode, Accurate stream, Test & Copy

"The Emperor of Wyoming" – 2:14
"The Loner" – 3:55
"If I Could Have Her Tonight" – 2:15
"I've Been Waiting for You" – 2:30
"The Old Laughing Lady" – 5:58
"String Quartet from Whiskey Boot Hill" – 1:04
"Here We Are in the Years" – 3:27
"What Did You Do to My Life?" – 2:28
"I've Loved Her So Long" – 2:40
"The Last Trip to Tulsa" – 9:25
X Lossless Decoder version 20091129 (114.3)

XLD extraction logfile from 2011-08-13 14:35:27 +0100

Neil Young / Neil Young [RE 1989] [CDA]

Used drive : PIONEER DVD-RW DVR-218L (revision 1.02)

Use cdparanoia mode : YES (CDParanoia III 10.2 engine)
Disable audio cache : OK for the drive with cache less than 2750KB
Make use of C2 pointers : NO
Read offset correction : 6
Max retry count : 100

TOC of the extracted CD
Track | Start | Length | Start sector | End sector
---------------------------------------------------------
1 | 00:00:00 | 02:20:20 | 0 | 10519
2 | 02:20:20 | 03:53:53 | 10520 | 28047
3 | 06:13:73 | 02:22:07 | 28048 | 38704
4 | 08:36:05 | 02:35:08 | 38705 | 50337
5 | 11:11:13 | 05:58:57 | 50338 | 77244
6 | 17:09:70 | 00:57:68 | 77245 | 81587
7 | 18:07:63 | 03:27:00 | 81588 | 97112
8 | 21:34:63 | 02:28:22 | 97113 | 108234
9 | 24:03:10 | 02:41:18 | 108235 | 120327
10 | 26:44:28 | 09:27:45 | 120328 | 162897

List of alternate offset correction values
# | Absolute | Relative | Confidence
------------------------------------------
1 | 670 | 664 | 70

All Tracks
Filename : /Volumes/DISC1/Lossless Temp/Neil Young/Neil Young - Neil Young - 1969/Neil Young [RE 1989] [CDA].flac
CRC32 hash (test run) : 170FA806
CRC32 hash : 170FA806
CRC32 hash (skip zero) : A0494C53
Statistics
Read error : 0
Skipped (treated as error) : 0
Edge jitter error (maybe fixed) : 0
Atom jitter error (maybe fixed) : 1
Drift error (maybe fixed) : 0
Dropped bytes error (maybe fixed) : 0
Duplicated bytes error (maybe fixed) : 0
Inconsistency in error sectors : 0

Track 01
CRC32 hash (test run) : 1C31976E
CRC32 hash : 1C31976E
CRC32 hash (skip zero) : 09A37592
AccurateRip signature : 588C7B14
->Accurately ripped! (confidence 13)
Statistics
Read error : 0
Skipped (treated as error) : 0
Edge jitter error (maybe fixed) : 0
Atom jitter error (maybe fixed) : 0
Drift error (maybe fixed) : 0
Dropped bytes error (maybe fixed) : 0
Duplicated bytes error (maybe fixed) : 0
Inconsistency in error sectors : 0

Track 02
CRC32 hash (test run) : 40478972
CRC32 hash : 40478972
CRC32 hash (skip zero) : 64E074EE
AccurateRip signature : EBCFEC5D
->Accurately ripped! (confidence 12)
Statistics
Read error : 0
Skipped (treated as error) : 0
Edge jitter error (maybe fixed) : 0
Atom jitter error (maybe fixed) : 0
Drift error (maybe fixed) : 0
Dropped bytes error (maybe fixed) : 0
Duplicated bytes error (maybe fixed) : 0
Inconsistency in error sectors : 0

Track 03
CRC32 hash (test run) : EA5FD545
CRC32 hash : EA5FD545
CRC32 hash (skip zero) : 88452903
AccurateRip signature : 5DFFB38A
->Accurately ripped! (confidence 12)
Statistics
Read error : 0
Skipped (treated as error) : 0
Edge jitter error (maybe fixed) : 0
Atom jitter error (maybe fixed) : 0
Drift error (maybe fixed) : 0
Dropped bytes error (maybe fixed) : 0
Duplicated bytes error (maybe fixed) : 0
Inconsistency in error sectors : 0

Track 04
CRC32 hash (test run) : 25A64081
CRC32 hash : 25A64081
CRC32 hash (skip zero) : D5E1A30E
AccurateRip signature : B4E08C65
->Accurately ripped! (confidence 12)
Statistics
Read error : 0
Skipped (treated as error) : 0
Edge jitter error (maybe fixed) : 0
Atom jitter error (maybe fixed) : 0
Drift error (maybe fixed) : 0
Dropped bytes error (maybe fixed) : 0
Duplicated bytes error (maybe fixed) : 0
Inconsistency in error sectors : 0

Track 05
CRC32 hash (test run) : 23D9376B
CRC32 hash : 23D9376B
CRC32 hash (skip zero) : 4F4B972A
AccurateRip signature : EDE680F1
->Accurately ripped! (confidence 12)
Statistics
Read error : 0
Skipped (treated as error) : 0
Edge jitter error (maybe fixed) : 0
Atom jitter error (maybe fixed) : 0
Drift error (maybe fixed) : 0
Dropped bytes error (maybe fixed) : 0
Duplicated bytes error (maybe fixed) : 0
Inconsistency in error sectors : 0

Track 06
CRC32 hash (test run) : B44552B2
CRC32 hash : B44552B2
CRC32 hash (skip zero) : 5E80EEEE
AccurateRip signature : 63DE1032
->Accurately ripped! (confidence 12)
Statistics
Read error : 0
Skipped (treated as error) : 0
Edge jitter error (maybe fixed) : 0
Atom jitter error (maybe fixed) : 0
Drift error (maybe fixed) : 0
Dropped bytes error (maybe fixed) : 0
Duplicated bytes error (maybe fixed) : 0
Inconsistency in error sectors : 0

Track 07
CRC32 hash (test run) : 382BB6B7
CRC32 hash : 382BB6B7
CRC32 hash (skip zero) : 7E30D6CB
AccurateRip signature : 29593038
->Accurately ripped! (confidence 12)
Statistics
Read error : 0
Skipped (treated as error) : 0
Edge jitter error (maybe fixed) : 0
Atom jitter error (maybe fixed) : 0
Drift error (maybe fixed) : 0
Dropped bytes error (maybe fixed) : 0
Duplicated bytes error (maybe fixed) : 0
Inconsistency in error sectors : 0

Track 08
CRC32 hash (test run) : 562458C8
CRC32 hash : 562458C8
CRC32 hash (skip zero) : 3924394A
AccurateRip signature : E519E40E
->Accurately ripped! (confidence 12)
Statistics
Read error : 0
Skipped (treated as error) : 0
Edge jitter error (maybe fixed) : 0
Atom jitter error (maybe fixed) : 0
Drift error (maybe fixed) : 0
Dropped bytes error (maybe fixed) : 0
Duplicated bytes error (maybe fixed) : 0
Inconsistency in error sectors : 0

Track 09
CRC32 hash (test run) : 9411E406
CRC32 hash : 9411E406
CRC32 hash (skip zero) : 67F3571C
AccurateRip signature : B348660A
->Accurately ripped! (confidence 12)
Statistics
Read error : 0
Skipped (treated as error) : 0
Edge jitter error (maybe fixed) : 0
Atom jitter error (maybe fixed) : 0
Drift error (maybe fixed) : 0
Dropped bytes error (maybe fixed) : 0
Duplicated bytes error (maybe fixed) : 0
Inconsistency in error sectors : 0

Track 10
CRC32 hash (test run) : DE92729E
CRC32 hash : DE92729E
CRC32 hash (skip zero) : A3D8FBBB
AccurateRip signature : AE7AB340
->Accurately ripped! (confidence 12)
Statistics
Read error : 0
Skipped (treated as error) : 0
Edge jitter error (maybe fixed) : 0
Atom jitter error (maybe fixed) : 1
Drift error (maybe fixed) : 0
Dropped bytes error (maybe fixed) : 0
Duplicated bytes error (maybe fixed) : 0
Inconsistency in error sectors : 0

No errors occurred

End of status report

1. "Tell Me Why" – 2:54
2. "After the Gold Rush" – 3:45
3. "Only Love Can Break Your Heart" – 3:05
4. "Southern Man" – 5:31
5. "Till the Morning Comes" – 1:17
6. "Oh Lonesome Me" (Don Gibson) – 3:47
7. "Don't Let It Bring You Down" – 2:56
8. "Birds" – 2:34
9. "When You Dance I Can Really Love" – 4:05
10. "I Believe in You" – 3:24
11. "Cripple Creek Ferry" – 1:34
Exact Audio Copy V1.0 beta 3 from 29. August 2011

EAC extraction logfile from 29. November 2012, 2:30

Neil Young / After The Gold Rush

Used drive : PIONEER DVD-RW DVR-115D Adapter: 1 ID: 0

Read mode : Secure
Utilize accurate stream : Yes
Defeat audio cache : Yes
Make use of C2 pointers : No

Read offset correction : 48
Overread into Lead-In and Lead-Out : No
Fill up missing offset samples with silence : Yes
Delete leading and trailing silent blocks : No
Null samples used in CRC calculations : Yes
Used interface : Installed external ASPI interface

Used output format : User Defined Encoder
Selected bitrate : 320 kBit/s
Quality : High
Add ID3 tag : No
Command line compressor : C:\Program Files\Exact Audio Copy 1.0\Flac\flac.exe
Additional command line options : -V -8 -T "Genre=%genre%" -T "Artist=%artist%" -T "Title=%title%" -T "Album=%albumtitle%" -T "Date=%year%" -T "Tracknumber=%tracknr%" -T "Comment=%comment%" %source%

TOC of the extracted CD

Track | Start | Length | Start sector | End sector
---------------------------------------------------------
1 | 0:00.32 | 2:58.18 | 32 | 13399
2 | 2:58.50 | 3:46.05 | 13400 | 30354
3 | 6:44.55 | 3:08.25 | 30355 | 44479
4 | 9:53.05 | 5:32.07 | 44480 | 69386
5 | 15:25.12 | 1:20.48 | 69387 | 75434
6 | 16:45.60 | 3:50.12 | 75435 | 92696
7 | 20:35.72 | 2:57.45 | 92697 | 106016
8 | 23:33.42 | 2:33.30 | 106017 | 117521
9 | 26:06.72 | 4:05.33 | 117522 | 135929
10 | 30:12.30 | 3:27.42 | 135930 | 151496
11 | 33:39.72 | 1:33.48 | 151497 | 158519

Range status and errors

Selected range

Filename K:\Lossless Temp\Neil Young\03 - Neil Young - After The Gold Rush - 1970 (Reprise Records, 2283-2)\Neil Young - After The Gold Rush.wav

Peak level 82.0 %
Extraction speed 5.4 X
Range quality 100.0 %
Test CRC 37ECCE28
Copy CRC 37ECCE28
Copy OK

No errors occurred

AccurateRip summary

Track 1 accurately ripped (confidence 16) [BB6CE2CA] (AR v2)
Track 2 accurately ripped (confidence 16) [76447FD2] (AR v2)
Track 3 accurately ripped (confidence 15) [586B2EB8] (AR v2)
Track 4 accurately ripped (confidence 16) [144EB716] (AR v2)
Track 5 accurately ripped (confidence 16) [F9CFF7A7] (AR v2)
Track 6 accurately ripped (confidence 16) [3F59514F] (AR v2)
Track 7 accurately ripped (confidence 16) [BA030D4B] (AR v2)
Track 8 accurately ripped (confidence 15) [8D721396] (AR v2)
Track 9 accurately ripped (confidence 16) [2A9D1F64] (AR v2)
Track 10 accurately ripped (confidence 16) [F1038142] (AR v2)
Track 11 accurately ripped (confidence 16) [F5267A27] (AR v2)

All tracks accurately ripped

End of status report

==== Log checksum 4939E84647FA645F00711924EEB52075271156B7421F59C4FF2DD4148ECC7C73 ====

1. "Out on the Weekend"
2. "Harvest"
3. "A Man Needs a Maid"
4. "Heart of Gold"
5. "Are You Ready for the Country?"
6. "Old Man"
7. "There's a World"
8. "Alabama"
9. "The Needle and the Damage Done"
10. "Words (Between the Lines of Age)"
Exact Audio Copy V1.0 beta 3 from 29. August 2011

EAC extraction logfile from 27. May 2012, 15:36

Neil Young / Harvest (Remastered-2009)

Used drive : PIONEER DVD-RW DVR-115D Adapter: 1 ID: 0

Read mode : Secure
Utilize accurate stream : Yes
Defeat audio cache : Yes
Make use of C2 pointers : No

Read offset correction : 48
Overread into Lead-In and Lead-Out : No
Fill up missing offset samples with silence : Yes
Delete leading and trailing silent blocks : No
Null samples used in CRC calculations : Yes
Used interface : Installed external ASPI interface

Used output format : User Defined Encoder
Selected bitrate : 320 kBit/s
Quality : High
Add ID3 tag : No
Command line compressor : C:\Program Files\Exact Audio Copy 1.0\Flac\flac.exe
Additional command line options : -V -8 -T "Genre=%genre%" -T "Artist=%artist%" -T "Title=%title%" -T "Album=%albumtitle%" -T "Date=%year%" -T "Tracknumber=%tracknr%" -T "Comment=%comment%" %source%

TOC of the extracted CD

Track | Start | Length | Start sector | End sector
---------------------------------------------------------
1 | 0:00.00 | 4:34.20 | 0 | 20569
2 | 4:34.20 | 3:11.41 | 20570 | 34935
3 | 7:45.61 | 4:05.37 | 34936 | 53347
4 | 11:51.23 | 3:07.01 | 53348 | 67373
5 | 14:58.24 | 3:33.00 | 67374 | 83348
6 | 18:31.24 | 3:24.62 | 83349 | 98710
7 | 21:56.11 | 2:59.19 | 98711 | 112154
8 | 24:55.30 | 4:02.15 | 112155 | 130319
9 | 28:57.45 | 2:03.14 | 130320 | 139558
10 | 31:00.59 | 6:47.12 | 139559 | 170095

Range status and errors

Selected range

Filename K:\Lossless Temp\Neil Young\Neil Young - Harvest - 1972 (2009 Reprise Records 9362-49789-9, HDCD Digitally Remastered)\Neil Young - Harvest (Remastered-2009).wav

Peak level 97.6 %
Extraction speed 5.4 X
Range quality 100.0 %
Test CRC 1C4B639A
Copy CRC 1C4B639A
Copy OK

No errors occurred

AccurateRip summary

Track 1 accurately ripped (confidence 30) [86FD59F2] (AR v2)
Track 2 accurately ripped (confidence 30) [A67395C1] (AR v2)
Track 3 accurately ripped (confidence 30) [C3B90365] (AR v2)
Track 4 accurately ripped (confidence 30) [1C9ADA9A] (AR v2)
Track 5 accurately ripped (confidence 29) [A184A70A] (AR v2)
Track 6 accurately ripped (confidence 30) [D2DCE91A] (AR v2)
Track 7 accurately ripped (confidence 30) [73B8930F] (AR v2)
Track 8 accurately ripped (confidence 30) [4ACDADAF] (AR v2)
Track 9 accurately ripped (confidence 30) [EEC8912B] (AR v2)
Track 10 accurately ripped (confidence 29) [42E5906E] (AR v2)

All tracks accurately ripped

End of status report

==== Log checksum 3A09FEC38D18A9BAEFFDBAE705C3F8D5AA7E68152678A70B6DE7B32D3507275A ====

1. Walk On (2:43)
2. See the Sky About to Rain (5:02)
3. Revolution Blues (4:04)
4. For the Turnstiles (3:15)
5. Vampire Blues (4:15)
6. On the Beach (6:59)
7. Motion Pictures (4:24)
8. Ambulance Blues (8:56)
Exact Audio Copy V1.0 beta 3 from 29. August 2011

EAC extraction logfile from 29. November 2012, 0:51

Neil Young / On The Beach

Used drive : PIONEER DVD-RW DVR-115D Adapter: 1 ID: 0

Read mode : Secure
Utilize accurate stream : Yes
Defeat audio cache : Yes
Make use of C2 pointers : No

Read offset correction : 48
Overread into Lead-In and Lead-Out : No
Fill up missing offset samples with silence : Yes
Delete leading and trailing silent blocks : No
Null samples used in CRC calculations : Yes
Used interface : Installed external ASPI interface

Used output format : User Defined Encoder
Selected bitrate : 320 kBit/s
Quality : High
Add ID3 tag : No
Command line compressor : C:\Program Files\Exact Audio Copy 1.0\Flac\flac.exe
Additional command line options : -V -8 -T "Genre=%genre%" -T "Artist=%artist%" -T "Title=%title%" -T "Album=%albumtitle%" -T "Date=%year%" -T "Tracknumber=%tracknr%" -T "Comment=%comment%" %source%

TOC of the extracted CD

Track | Start | Length | Start sector | End sector
---------------------------------------------------------
1 | 0:00.00 | 2:42.50 | 0 | 12199
2 | 2:42.50 | 5:02.35 | 12200 | 34884
3 | 7:45.10 | 4:03.49 | 34885 | 53158
4 | 11:48.59 | 3:15.26 | 53159 | 67809
5 | 15:04.10 | 4:14.52 | 67810 | 86911
6 | 19:18.62 | 6:59.23 | 86912 | 118359
7 | 26:18.10 | 4:23.52 | 118360 | 138136
8 | 30:41.62 | 8:56.20 | 138137 | 178356

Range status and errors

Selected range

Filename K:\Lossless Temp\Neil Young\05 - Neil Young - On The Beach - 1974 (2003 Warner Bros. Records, 9362-48526-2 (Vinyl Cover))\Neil Young - On The Beach.wav

Peak level 98.1 %
Extraction speed 5.5 X
Range quality 99.9 %
Test CRC 38469E49
Copy CRC 38469E49
Copy OK

No errors occurred

AccurateRip summary

Track 1 accurately ripped (confidence 38) [90C104F5] (AR v2)
Track 2 accurately ripped (confidence 39) [0C82E5FC] (AR v2)
Track 3 accurately ripped (confidence 39) [435F1889] (AR v2)
Track 4 accurately ripped (confidence 39) [214B68DC] (AR v2)
Track 5 accurately ripped (confidence 39) [88118548] (AR v2)
Track 6 accurately ripped (confidence 39) [39578C5F] (AR v2)
Track 7 accurately ripped (confidence 39) [2341C201] (AR v2)
Track 8 accurately ripped (confidence 39) [6A79A7C1] (AR v2)

All tracks accurately ripped

End of status report

==== Log checksum 97AF6AC5D4FF10E29A9219863190D6A92B24802CD915EAECBE3C4889EEAFF84D ====

01. Tonight's the Night (04:41)
02. Speakin' Out (04:57)
03. World on a String (02:25)
04. Borrowed Tune (03:25)
05. Come on Baby Let's Go Downtown (live) (03:35)
06. Mellow My Mind (03:11)
07. Roll Another Number (For the Road) (03:04)
08. Albuquerque (04:01)
09. New Mama (02:13)
10. Lookout Joe (03:54)
11. Tired Eyes (04:33)
12. Tonight's the Night, Part 2 (04:52)
Exact Audio Copy V1.0 beta 3 from 29. August 2011

EAC extraction logfile from 29. November 2012, 0:21

Neil Young / Tonight's The Night

Used drive : PIONEER DVD-RW DVR-115D Adapter: 1 ID: 0

Read mode : Secure
Utilize accurate stream : Yes
Defeat audio cache : Yes
Make use of C2 pointers : No

Read offset correction : 48
Overread into Lead-In and Lead-Out : No
Fill up missing offset samples with silence : Yes
Delete leading and trailing silent blocks : No
Null samples used in CRC calculations : Yes
Used interface : Installed external ASPI interface

Used output format : User Defined Encoder
Selected bitrate : 320 kBit/s
Quality : High
Add ID3 tag : No
Command line compressor : C:\Program Files\Exact Audio Copy 1.0\Flac\flac.exe
Additional command line options : -V -8 -T "Genre=%genre%" -T "Artist=%artist%" -T "Title=%title%" -T "Album=%albumtitle%" -T "Date=%year%" -T "Tracknumber=%tracknr%" -T "Comment=%comment%" %source%

TOC of the extracted CD

Track | Start | Length | Start sector | End sector
---------------------------------------------------------
1 | 0:00.00 | 4:42.50 | 0 | 21199
2 | 4:42.50 | 4:57.22 | 21200 | 43496
3 | 9:39.72 | 2:25.28 | 43497 | 54399
4 | 12:05.25 | 3:26.15 | 54400 | 69864
5 | 15:31.40 | 3:35.62 | 69865 | 86051
6 | 19:07.27 | 3:08.20 | 86052 | 100171
7 | 22:15.47 | 3:07.35 | 100172 | 114231
8 | 25:23.07 | 4:01.45 | 114232 | 132351
9 | 29:24.52 | 2:13.20 | 132352 | 142346
10 | 31:37.72 | 3:54.48 | 142347 | 159944
11 | 35:32.45 | 4:33.67 | 159945 | 180486
12 | 40:06.37 | 4:52.20 | 180487 | 202406

Range status and errors

Selected range

Filename K:\Lossless Temp\Neil Young\06 - Neil Young - Tonight's The Night - 1975 (Reprise Records, 7599-27221-2)\Neil Young - Tonight's The Night.wav

Peak level 92.5 %
Extraction speed 5.7 X
Range quality 100.0 %
Test CRC E1E5A428
Copy CRC E1E5A428
Copy OK

No errors occurred

AccurateRip summary

Track 1 accurately ripped (confidence 17) [0AA5637F] (AR v2)
Track 2 accurately ripped (confidence 18) [F4F23844] (AR v2)
Track 3 accurately ripped (confidence 18) [AB0F7F42] (AR v2)
Track 4 accurately ripped (confidence 18) [97EC4F0D] (AR v2)
Track 5 accurately ripped (confidence 18) [CB05351A] (AR v2)
Track 6 accurately ripped (confidence 18) [C6681D92] (AR v2)
Track 7 accurately ripped (confidence 18) [8DAC23A8] (AR v2)
Track 8 accurately ripped (confidence 18) [B69CCE1A] (AR v2)
Track 9 accurately ripped (confidence 18) [171CFEFE] (AR v2)
Track 10 accurately ripped (confidence 18) [18CFDDD7] (AR v2)
Track 11 accurately ripped (confidence 18) [2F877957] (AR v2)
Track 12 accurately ripped (confidence 18) [254F9439] (AR v2)

All tracks accurately ripped

End of status report

==== Log checksum 90ADB61CAE975BDC6F1A14A9E94149A906A36649F4F235B13F3061C2D06DE71E ====

1. "The Old Country Waltz" 2:58
2. "Saddle Up the Palomino" 3:00
3. "Hey Babe" 3:35
4. "Hold Back the Tears" 4:18
5. "Bite the Bullet" 3:30
6. "Star of Bethlehem" 2:42
7. "Will to Love" 7:11
8. "Like a Hurricane" 8:20
9. "Homegrown" 2:20
Exact Audio Copy V1.0 beta 3 from 29. August 2011

EAC extraction logfile from 22. December 2012, 3:14

Neil Young / American Stars 'N Bars

Used drive : PLEXTOR DVDR PX-891SA Adapter: 0 ID: 2

Read mode : Secure
Utilize accurate stream : Yes
Defeat audio cache : Yes
Make use of C2 pointers : No

Read offset correction : 6
Overread into Lead-In and Lead-Out : No
Fill up missing offset samples with silence : Yes
Delete leading and trailing silent blocks : No
Null samples used in CRC calculations : Yes
Used interface : Installed external ASPI interface

Used output format : User Defined Encoder
Selected bitrate : 320 kBit/s
Quality : High
Add ID3 tag : No
Command line compressor : C:\Program Files\Exact Audio Copy 1.0\Flac\flac.exe
Additional command line options : -V -8 -T "Genre=%genre%" -T "Artist=%artist%" -T "Title=%title%" -T "Album=%albumtitle%" -T "Date=%year%" -T "Tracknumber=%tracknr%" -T "Comment=%comment%" %source%

TOC of the extracted CD

Track | Start | Length | Start sector | End sector
---------------------------------------------------------
1 | 0:00.00 | 3:00.05 | 0 | 13504
2 | 3:00.05 | 3:01.16 | 13505 | 27095
3 | 6:01.21 | 3:37.52 | 27096 | 43422
4 | 9:38.73 | 4:20.51 | 43423 | 62973
5 | 13:59.49 | 3:36.51 | 62974 | 79224
6 | 17:36.25 | 2:42.65 | 79225 | 91439
7 | 20:19.15 | 7:11.25 | 91440 | 123789
8 | 27:30.40 | 8:20.53 | 123790 | 161342
9 | 35:51.18 | 2:21.69 | 161343 | 171986

Range status and errors

Selected range

Filename K:\Lossless Temp\Neil Young\08 - Neil Young - American Stars'n'Bars - 1977 (2003 Reprise Records, 48496-2)\Neil Young - American Stars 'N Bars.wav

Peak level 97.5 %
Extraction speed 6.2 X
Range quality 100.0 %
Test CRC 944135A4
Copy CRC 944135A4
Copy OK

No errors occurred

AccurateRip summary

Track 1 accurately ripped (confidence 6) [541AB0A4] (AR v2)
Track 2 accurately ripped (confidence 6) [F9287EE9] (AR v2)
Track 3 accurately ripped (confidence 6) [C2FEEF4D] (AR v2)
Track 4 accurately ripped (confidence 6) [D539AE6F] (AR v2)
Track 5 accurately ripped (confidence 6) [436786A9] (AR v2)
Track 6 accurately ripped (confidence 6) [0AA2BBC6] (AR v2)
Track 7 accurately ripped (confidence 6) [BA4A0D72] (AR v2)
Track 8 accurately ripped (confidence 6) [9FD1C941] (AR v2)
Track 9 accurately ripped (confidence 6) [4F3B141F] (AR v2)

All tracks accurately ripped

End of status report

==== Log checksum 05ECE64AD805DB003B106CDFB8BFDD56EC2CFEB31AF17EDA26E484C34DA962C4 ====

1. Goin' Back (4:42)
2. Comes a Time (3:07)
3. Look Out for My Love (4:06)
4. Lotta Love (2:38)
5. Peace of Mind (4:11)
6. Human Highway (3:10)
7. Already One (4:55)
8. Field of Opportunity (3:10)
9. Motorcycle Mama (3:11)
10. Four Strong Winds (4:06)
X Lossless Decoder version 20091129 (114.3)

XLD extraction logfile from 2011-08-13 16:23:44 +0100

Young, Neil / Comes A Time

Used drive : PIONEER DVD-RW DVR-218L (revision 1.02)

Use cdparanoia mode : YES (CDParanoia III 10.2 engine)
Disable audio cache : OK for the drive with cache less than 2750KB
Make use of C2 pointers : NO
Read offset correction : 6
Max retry count : 100

TOC of the extracted CD
Track | Start | Length | Start sector | End sector
---------------------------------------------------------
1 | 00:00:00 | 04:41:52 | 0 | 21126
2 | 04:41:52 | 03:06:48 | 21127 | 35124
3 | 07:48:25 | 04:05:52 | 35125 | 53551
4 | 11:54:02 | 02:38:10 | 53552 | 65411
5 | 14:32:12 | 04:10:55 | 65412 | 84216
6 | 18:42:67 | 03:10:10 | 84217 | 98476
7 | 21:53:02 | 04:54:43 | 98477 | 120569
8 | 26:47:45 | 03:09:57 | 120570 | 134801
9 | 29:57:27 | 03:11:18 | 134802 | 149144
10 | 33:08:45 | 04:05:57 | 149145 | 167576

List of alternate offset correction values
# | Absolute | Relative | Confidence
------------------------------------------
1 | -658 | -664 | 48

All Tracks
Filename : /Volumes/DISC1/Lossless Temp/Neil Young/Neil Young - Comes a Time - 1978/Comes A Time.flac
CRC32 hash (test run) : 26AD7D3E
CRC32 hash : 26AD7D3E
CRC32 hash (skip zero) : B7A15689
Statistics
Read error : 0
Skipped (treated as error) : 0
Edge jitter error (maybe fixed) : 0
Atom jitter error (maybe fixed) : 0
Drift error (maybe fixed) : 0
Dropped bytes error (maybe fixed) : 0
Duplicated bytes error (maybe fixed) : 0
Inconsistency in error sectors : 0

Track 01
CRC32 hash (test run) : E67E5560
CRC32 hash : E67E5560
CRC32 hash (skip zero) : 4DE87CBF
AccurateRip signature : EE5C7AE0
->Accurately ripped! (confidence 39)
Statistics
Read error : 0
Skipped (treated as error) : 0
Edge jitter error (maybe fixed) : 0
Atom jitter error (maybe fixed) : 0
Drift error (maybe fixed) : 0
Dropped bytes error (maybe fixed) : 0
Duplicated bytes error (maybe fixed) : 0
Inconsistency in error sectors : 0

Track 02
CRC32 hash (test run) : 7AE284B2
CRC32 hash : 7AE284B2
CRC32 hash (skip zero) : 6849C2F6
AccurateRip signature : B5494032
->Accurately ripped! (confidence 40)
Statistics
Read error : 0
Skipped (treated as error) : 0
Edge jitter error (maybe fixed) : 0
Atom jitter error (maybe fixed) : 0
Drift error (maybe fixed) : 0
Dropped bytes error (maybe fixed) : 0
Duplicated bytes error (maybe fixed) : 0
Inconsistency in error sectors : 0

Track 03
CRC32 hash (test run) : CDB6EA07
CRC32 hash : CDB6EA07
CRC32 hash (skip zero) : 4C51DCB6
AccurateRip signature : 5D126AB2
->Accurately ripped! (confidence 41)
Statistics
Read error : 0
Skipped (treated as error) : 0
Edge jitter error (maybe fixed) : 0
Atom jitter error (maybe fixed) : 0
Drift error (maybe fixed) : 0
Dropped bytes error (maybe fixed) : 0
Duplicated bytes error (maybe fixed) : 0
Inconsistency in error sectors : 0

Track 04
CRC32 hash (test run) : 003C785E
CRC32 hash : 003C785E
CRC32 hash (skip zero) : 9EE8E4B2
AccurateRip signature : FE5FD060
->Accurately ripped! (confidence 40)
Statistics
Read error : 0
Skipped (treated as error) : 0
Edge jitter error (maybe fixed) : 0
Atom jitter error (maybe fixed) : 0
Drift error (maybe fixed) : 0
Dropped bytes error (maybe fixed) : 0
Duplicated bytes error (maybe fixed) : 0
Inconsistency in error sectors : 0

Track 05
CRC32 hash (test run) : 1FB3822E
CRC32 hash : 1FB3822E
CRC32 hash (skip zero) : 0DD7C912
AccurateRip signature : 1C6DB42C
->Accurately ripped! (confidence 40)
Statistics
Read error : 0
Skipped (treated as error) : 0
Edge jitter error (maybe fixed) : 0
Atom jitter error (maybe fixed) : 0
Drift error (maybe fixed) : 0
Dropped bytes error (maybe fixed) : 0
Duplicated bytes error (maybe fixed) : 0
Inconsistency in error sectors : 0

Track 06
CRC32 hash (test run) : 39E1FB39
CRC32 hash : 39E1FB39
CRC32 hash (skip zero) : A06D916B
AccurateRip signature : F638CDA0
->Accurately ripped! (confidence 39)
Statistics
Read error : 0
Skipped (treated as error) : 0
Edge jitter error (maybe fixed) : 0
Atom jitter error (maybe fixed) : 0
Drift error (maybe fixed) : 0
Dropped bytes error (maybe fixed) : 0
Duplicated bytes error (maybe fixed) : 0
Inconsistency in error sectors : 0

Track 07
CRC32 hash (test run) : CD131B3D
CRC32 hash : CD131B3D
CRC32 hash (skip zero) : 80646C41
AccurateRip signature : D6DD908D
->Accurately ripped! (confidence 40)
Statistics
Read error : 0
Skipped (treated as error) : 0
Edge jitter error (maybe fixed) : 0
Atom jitter error (maybe fixed) : 0
Drift error (maybe fixed) : 0
Dropped bytes error (maybe fixed) : 0
Duplicated bytes error (maybe fixed) : 0
Inconsistency in error sectors : 0

Track 08
CRC32 hash (test run) : E5923594
CRC32 hash : E5923594
CRC32 hash (skip zero) : 4F7EC66D
AccurateRip signature : EAE66733
->Accurately ripped! (confidence 40)
Statistics
Read error : 0
Skipped (treated as error) : 0
Edge jitter error (maybe fixed) : 0
Atom jitter error (maybe fixed) : 0
Drift error (maybe fixed) : 0
Dropped bytes error (maybe fixed) : 0
Duplicated bytes error (maybe fixed) : 0
Inconsistency in error sectors : 0

Track 09
CRC32 hash (test run) : F724BCE5
CRC32 hash : F724BCE5
CRC32 hash (skip zero) : 5B1F7ADF
AccurateRip signature : ED44AD01
->Accurately ripped! (confidence 39)
Statistics
Read error : 0
Skipped (treated as error) : 0
Edge jitter error (maybe fixed) : 0
Atom jitter error (maybe fixed) : 0
Drift error (maybe fixed) : 0
Dropped bytes error (maybe fixed) : 0
Duplicated bytes error (maybe fixed) : 0
Inconsistency in error sectors : 0

Track 10
CRC32 hash (test run) : 575D598B
CRC32 hash : 575D598B
CRC32 hash (skip zero) : E2B48F7D
AccurateRip signature : 22601339
->Accurately ripped! (confidence 38)
Statistics
Read error : 0
Skipped (treated as error) : 0
Edge jitter error (maybe fixed) : 0
Atom jitter error (maybe fixed) : 0
Drift error (maybe fixed) : 0
Dropped bytes error (maybe fixed) : 0
Duplicated bytes error (maybe fixed) : 0
Inconsistency in error sectors : 0

No errors occurred

End of status report

01 - Little Wing [2:16]
02 - The Old Homestead [7:43]
03 - Lost In Space [4:21]
04 - Captain Kennedy [2:59]
05 - Stayin' Power [2:22]
06 - Coastline [2:30]
07 - Union Man [2:13]
08 - Comin' Apart At Every Nail [2:40]
09 - Hawks & Doves [3:28]
X Lossless Decoder version 20091129 (114.3)

XLD extraction logfile from 2011-08-13 18:40:44 +0100

Neil Young / Hawks & Doves

Used drive : PIONEER DVD-RW DVR-218L (revision 1.02)

Use cdparanoia mode : YES (CDParanoia III 10.2 engine)
Disable audio cache : OK for the drive with cache less than 2750KB
Make use of C2 pointers : NO
Read offset correction : 6
Max retry count : 100

TOC of the extracted CD
Track | Start | Length | Start sector | End sector
---------------------------------------------------------
1 | 00:00:00 | 02:15:59 | 0 | 10183
2 | 02:15:59 | 07:43:11 | 10184 | 44919
3 | 09:58:70 | 04:21:13 | 44920 | 64507
4 | 14:20:08 | 02:59:00 | 64508 | 77932
5 | 17:19:08 | 02:22:14 | 77933 | 88596
6 | 19:41:22 | 02:30:31 | 88597 | 99877
7 | 22:11:53 | 02:13:23 | 99878 | 109875
8 | 24:25:01 | 02:40:30 | 109876 | 121905
9 | 27:05:31 | 03:27:60 | 121906 | 137490

List of alternate offset correction values
# | Absolute | Relative | Confidence
------------------------------------------
1 | 829 | 823 | 20
2 | 682 | 676 | 12
3 | 688 | 682 | 6
4 | -12 | -18 | 2
5 | 12 | 6 | 2

All Tracks
Filename : /Volumes/DISC1/Lossless Temp/Neil Young/12 - Neil Young - Hawks And Doves - 1980/Hawks & Doves.flac
CRC32 hash (test run) : 0A86C4E5
CRC32 hash : 0A86C4E5
CRC32 hash (skip zero) : 8CE56F8A
Statistics
Read error : 0
Skipped (treated as error) : 0
Edge jitter error (maybe fixed) : 0
Atom jitter error (maybe fixed) : 0
Drift error (maybe fixed) : 0
Dropped bytes error (maybe fixed) : 0
Duplicated bytes error (maybe fixed) : 0
Inconsistency in error sectors : 0

Track 01
CRC32 hash (test run) : 9EE20432
CRC32 hash : 9EE20432
CRC32 hash (skip zero) : 569C486F
AccurateRip signature : 7449D252
->Accurately ripped! (confidence 63)
Statistics
Read error : 0
Skipped (treated as error) : 0
Edge jitter error (maybe fixed) : 0
Atom jitter error (maybe fixed) : 0
Drift error (maybe fixed) : 0
Dropped bytes error (maybe fixed) : 0
Duplicated bytes error (maybe fixed) : 0
Inconsistency in error sectors : 0

Track 02
CRC32 hash (test run) : 36302D8B
CRC32 hash : 36302D8B
CRC32 hash (skip zero) : 0C7CCC8D
AccurateRip signature : D4C33845
->Accurately ripped! (confidence 64)
Statistics
Read error : 0
Skipped (treated as error) : 0
Edge jitter error (maybe fixed) : 0
Atom jitter error (maybe fixed) : 0
Drift error (maybe fixed) : 0
Dropped bytes error (maybe fixed) : 0
Duplicated bytes error (maybe fixed) : 0
Inconsistency in error sectors : 0

Track 03
CRC32 hash (test run) : 6A4B7019
CRC32 hash : 6A4B7019
CRC32 hash (skip zero) : 56A92841
AccurateRip signature : 0CDDDDBE
->Accurately ripped! (confidence 64)
Statistics
Read error : 0
Skipped (treated as error) : 0
Edge jitter error (maybe fixed) : 0
Atom jitter error (maybe fixed) : 0
Drift error (maybe fixed) : 0
Dropped bytes error (maybe fixed) : 0
Duplicated bytes error (maybe fixed) : 0
Inconsistency in error sectors : 0

Track 04
CRC32 hash (test run) : 75E10B0A
CRC32 hash : 75E10B0A
CRC32 hash (skip zero) : 3FBB2FCF
AccurateRip signature : 1AC67959
->Accurately ripped! (confidence 64)
Statistics
Read error : 0
Skipped (treated as error) : 0
Edge jitter error (maybe fixed) : 0
Atom jitter error (maybe fixed) : 0
Drift error (maybe fixed) : 0
Dropped bytes error (maybe fixed) : 0
Duplicated bytes error (maybe fixed) : 0
Inconsistency in error sectors : 0

Track 05
CRC32 hash (test run) : 31CE668F
CRC32 hash : 31CE668F
CRC32 hash (skip zero) : 705BFA21
AccurateRip signature : 2DCA1854
->Accurately ripped! (confidence 64)
Statistics
Read error : 0
Skipped (treated as error) : 0
Edge jitter error (maybe fixed) : 0
Atom jitter error (maybe fixed) : 0
Drift error (maybe fixed) : 0
Dropped bytes error (maybe fixed) : 0
Duplicated bytes error (maybe fixed) : 0
Inconsistency in error sectors : 0

Track 06
CRC32 hash (test run) : 503F88B9
CRC32 hash : 503F88B9
CRC32 hash (skip zero) : 52929F16
AccurateRip signature : E7E545E1
->Accurately ripped! (confidence 64)
Statistics
Read error : 0
Skipped (treated as error) : 0
Edge jitter error (maybe fixed) : 0
Atom jitter error (maybe fixed) : 0
Drift error (maybe fixed) : 0
Dropped bytes error (maybe fixed) : 0
Duplicated bytes error (maybe fixed) : 0
Inconsistency in error sectors : 0

Track 07
CRC32 hash (test run) : 73B75209
CRC32 hash : 73B75209
CRC32 hash (skip zero) : 30AF9AC0
AccurateRip signature : 15552B9C
->Accurately ripped! (confidence 64)
Statistics
Read error : 0
Skipped (treated as error) : 0
Edge jitter error (maybe fixed) : 0
Atom jitter error (maybe fixed) : 0
Drift error (maybe fixed) : 0
Dropped bytes error (maybe fixed) : 0
Duplicated bytes error (maybe fixed) : 0
Inconsistency in error sectors : 0

Track 08
CRC32 hash (test run) : 17E628B7
CRC32 hash : 17E628B7
CRC32 hash (skip zero) : 81FE219A
AccurateRip signature : 9D34F0C3
->Accurately ripped! (confidence 64)
Statistics
Read error : 0
Skipped (treated as error) : 0
Edge jitter error (maybe fixed) : 0
Atom jitter error (maybe fixed) : 0
Drift error (maybe fixed) : 0
Dropped bytes error (maybe fixed) : 0
Duplicated bytes error (maybe fixed) : 0
Inconsistency in error sectors : 0

Track 09
CRC32 hash (test run) : 5B9AD032
CRC32 hash : 5B9AD032
CRC32 hash (skip zero) : C6C37F2A
AccurateRip signature : 74B5942B
->Accurately ripped! (confidence 63)
Statistics
Read error : 0
Skipped (treated as error) : 0
Edge jitter error (maybe fixed) : 0
Atom jitter error (maybe fixed) : 0
Drift error (maybe fixed) : 0
Dropped bytes error (maybe fixed) : 0
Duplicated bytes error (maybe fixed) : 0
Inconsistency in error sectors : 0

No errors occurred

End of status report

1. Little Thing Called Love (3:13)
2. Computer Age (5:25)
3. We R in Control (3:32)
4. Transformer Man (3:24)
5. Computer Cowboy (a.k.a. Skycrusher) (4:14)
6. Hold on to Your Love (3:28)
7. Sample and Hold (8:04)
8. Mr. Soul (3:19)
9. Like an Inca (9:46)
Exact Audio Copy V1.0 beta 3 from 29. August 2011

EAC extraction logfile from 6. December 2012, 5:18

Neil Young / Trans

Used drive : PIONEER DVD-RW DVR-115D Adapter: 1 ID: 0

Read mode : Secure
Utilize accurate stream : Yes
Defeat audio cache : Yes
Make use of C2 pointers : No

Read offset correction : 48
Overread into Lead-In and Lead-Out : No
Fill up missing offset samples with silence : Yes
Delete leading and trailing silent blocks : No
Null samples used in CRC calculations : Yes
Used interface : Installed external ASPI interface

Used output format : User Defined Encoder
Selected bitrate : 320 kBit/s
Quality : High
Add ID3 tag : No
Command line compressor : C:\Program Files\Exact Audio Copy 1.0\Flac\flac.exe
Additional command line options : -V -8 -T "Genre=%genre%" -T "Artist=%artist%" -T "Title=%title%" -T "Album=%albumtitle%" -T "Date=%year%" -T "Tracknumber=%tracknr%" -T "Comment=%comment%" %source%

TOC of the extracted CD

Track | Start | Length | Start sector | End sector
---------------------------------------------------------
1 | 0:00.00 | 3:13.25 | 0 | 14499
2 | 3:13.25 | 5:24.55 | 14500 | 38854
3 | 8:38.05 | 3:31.65 | 38855 | 54744
4 | 12:09.70 | 3:23.47 | 54745 | 70016
5 | 15:33.42 | 4:13.50 | 70017 | 89041
6 | 19:47.17 | 3:28.15 | 89042 | 104656
7 | 23:15.32 | 8:03.63 | 104657 | 140944
8 | 31:19.20 | 3:19.22 | 140945 | 155891
9 | 34:38.42 | 9:46.35 | 155892 | 199876

Range status and errors

Selected range

Filename K:\Lossless Temp\Neil Young\13 - Neil Young - Trans - 1982 (1997 Geffen Records, GFLD 19357)\Neil Young - Trans.wav

Peak level 100.0 %
Extraction speed 5.8 X
Range quality 100.0 %
Test CRC 7E658CD3
Copy CRC 7E658CD3
Copy OK

No errors occurred

AccurateRip summary

Track 1 accurately ripped (confidence 3) [695262BD] (AR v2)
Track 2 accurately ripped (confidence 3) [0064F63A] (AR v2)
Track 3 accurately ripped (confidence 3) [FC59C127] (AR v2)
Track 4 accurately ripped (confidence 3) [D96A70B6] (AR v2)
Track 5 accurately ripped (confidence 3) [E6330D46] (AR v2)
Track 6 accurately ripped (confidence 3) [568969F0] (AR v2)
Track 7 accurately ripped (confidence 3) [79884E3A] (AR v2)
Track 8 accurately ripped (confidence 3) [A94E558C] (AR v2)
Track 9 accurately ripped (confidence 3) [D9C9DBAE] (AR v2)

All tracks accurately ripped

End of status report

==== Log checksum 7B14DC6E8EC117461DB7A858F7FEF12948A0710170491D78422DFD3275A77EE1 ====

1. "Betty Lou's Got a New Pair of Shoes" (Bobby Freeman) 3:02
2. "Rainin' in My Heart" (Slim Harpo/Jerry West) 2:11
3. "Payola Blues" (Ben Keith/Neil Young) 3:09
4. "Wonderin'" (Young) 2:59
5. "Kinda Fonda Wanda" (Tim Drummond/Young) 1:51
6. "Jellyroll Man" (Young) 2:00
7. "Bright Lights, Big City" (Jimmy Reed) 2:18
8. "Cry, Cry, Cry" (Young) 2:39
9. "Mystery Train" (Junior Parker/Sam Phillips) “ 2:47
10. "Everybody's Rockin'" (Young) 1:57
Exact Audio Copy V1.0 beta 3 from 29. August 2011

EAC extraction logfile from 28. November 2012, 23:55

Neil Young & The Shocking Pinks / Everybody's Rockin'

Used drive : PIONEER DVD-RW DVR-115D Adapter: 1 ID: 0

Read mode : Secure
Utilize accurate stream : Yes
Defeat audio cache : Yes
Make use of C2 pointers : No

Read offset correction : 48
Overread into Lead-In and Lead-Out : No
Fill up missing offset samples with silence : Yes
Delete leading and trailing silent blocks : No
Null samples used in CRC calculations : Yes
Used interface : Installed external ASPI interface

Used output format : User Defined Encoder
Selected bitrate : 320 kBit/s
Quality : High
Add ID3 tag : No
Command line compressor : C:\Program Files\Exact Audio Copy 1.0\Flac\flac.exe
Additional command line options : -V -8 -T "Genre=%genre%" -T "Artist=%artist%" -T "Title=%title%" -T "Album=%albumtitle%" -T "Date=%year%" -T "Tracknumber=%tracknr%" -T "Comment=%comment%" %source%

TOC of the extracted CD

Track | Start | Length | Start sector | End sector
---------------------------------------------------------
1 | 0:00.00 | 3:02.05 | 0 | 13654
2 | 3:02.05 | 2:11.42 | 13655 | 23521
3 | 5:13.47 | 3:09.53 | 23522 | 37749
4 | 8:23.25 | 2:59.17 | 37750 | 51191
5 | 11:22.42 | 1:51.13 | 51192 | 59529
6 | 13:13.55 | 2:00.05 | 59530 | 68534
7 | 15:13.60 | 2:18.25 | 68535 | 78909
8 | 17:32.10 | 2:39.32 | 78910 | 90866
9 | 20:11.42 | 2:47.15 | 90867 | 103406
10 | 22:58.57 | 1:57.15 | 103407 | 112196

Range status and errors

Selected range

Filename K:\Lossless Temp\Neil Young\14 - Neil Young - Everybody's Rockin' - 1983 (2000 Geffen Records, 069 490 706-2)\Neil Young & The Shocking Pinks - Everybody's Rockin'.wav

Peak level 100.0 %
Extraction speed 5.0 X
Range quality 99.9 %
Test CRC 348DA71E
Copy CRC 348DA71E
Copy OK

No errors occurred

AccurateRip summary

Track 1 accurately ripped (confidence 5) [6664FFFB] (AR v2)
Track 2 accurately ripped (confidence 5) [21FB05A9] (AR v2)
Track 3 accurately ripped (confidence 5) [7DF1F458] (AR v2)
Track 4 accurately ripped (confidence 5) [C2C0C313] (AR v2)
Track 5 accurately ripped (confidence 5) [62043B34] (AR v2)
Track 6 accurately ripped (confidence 5) [CB1BE9F5] (AR v2)
Track 7 accurately ripped (confidence 5) [1624B8A6] (AR v2)
Track 8 accurately ripped (confidence 5) [7F04E553] (AR v2)
Track 9 accurately ripped (confidence 5) [2EC25A70] (AR v2)
Track 10 accurately ripped (confidence 5) [391F3FAC] (AR v2)

All tracks accurately ripped

End of status report

==== Log checksum D44770D47DDCDDB8EB9EB1DB918A66F9DF3042A07DB15E496E9DC52E191A456E ====

1. The Wayward Wind (3:13)
2. Get Back to the Country (2:51)
3. Are There Any More Real Cowboys? (3:04)
4. Once an Angel (3:56)
5. Misfits (5:07)
6. California Sunset (2:57)
7. Old Ways (3:08)
8. My Boy (3:37)
9. Bound for Glory (5:48)
10. Where Is the Highway Tonight? (3:03)
X Lossless Decoder version 20091129 (114.3)

XLD extraction logfile from 2011-08-13 19:49:32 +0100

Neil Young / Old Ways

Used drive : PIONEER DVD-RW DVR-218L (revision 1.02)

Use cdparanoia mode : YES (CDParanoia III 10.2 engine)
Disable audio cache : OK for the drive with cache less than 2750KB
Make use of C2 pointers : NO
Read offset correction : 6
Max retry count : 100

TOC of the extracted CD
Track | Start | Length | Start sector | End sector
---------------------------------------------------------
1 | 00:00:00 | 03:12:52 | 0 | 14451
2 | 03:12:52 | 02:50:58 | 14452 | 27259
3 | 06:03:35 | 03:03:62 | 27260 | 41046
4 | 09:07:22 | 03:55:50 | 41047 | 58721
5 | 13:02:72 | 05:07:30 | 58722 | 81776
6 | 18:10:27 | 02:56:53 | 81777 | 95029
7 | 21:07:05 | 03:08:02 | 95030 | 109131
8 | 24:15:07 | 03:37:20 | 109132 | 125426
9 | 27:52:27 | 05:48:00 | 125427 | 151526
10 | 33:40:27 | 03:02:50 | 151527 | 165226

List of alternate offset correction values
# | Absolute | Relative | Confidence
------------------------------------------
1 | -4 | -10 | 11
2 | 261 | 255 | 4

All Tracks
Filename : /Volumes/DISC1/Lossless Temp/Neil Young/Neil Young - Old Ways - 1985/Old Ways.flac
CRC32 hash (test run) : 0663268A
CRC32 hash : 0663268A
CRC32 hash (skip zero) : 93160268
Statistics
Read error : 0
Skipped (treated as error) : 0
Edge jitter error (maybe fixed) : 0
Atom jitter error (maybe fixed) : 0
Drift error (maybe fixed) : 0
Dropped bytes error (maybe fixed) : 0
Duplicated bytes error (maybe fixed) : 0
Inconsistency in error sectors : 0

Track 01
CRC32 hash (test run) : 6F063A0F
CRC32 hash : 6F063A0F
CRC32 hash (skip zero) : 3273948B
AccurateRip signature : E6AC5165
->Accurately ripped! (confidence 9)
Statistics
Read error : 0
Skipped (treated as error) : 0
Edge jitter error (maybe fixed) : 0
Atom jitter error (maybe fixed) : 0
Drift error (maybe fixed) : 0
Dropped bytes error (maybe fixed) : 0
Duplicated bytes error (maybe fixed) : 0
Inconsistency in error sectors : 0

Track 02
CRC32 hash (test run) : B965E388
CRC32 hash : B965E388
CRC32 hash (skip zero) : EA9A5027
AccurateRip signature : 55C97FDC
->Accurately ripped! (confidence 10)
Statistics
Read error : 0
Skipped (treated as error) : 0
Edge jitter error (maybe fixed) : 0
Atom jitter error (maybe fixed) : 0
Drift error (maybe fixed) : 0
Dropped bytes error (maybe fixed) : 0
Duplicated bytes error (maybe fixed) : 0
Inconsistency in error sectors : 0

Track 03
CRC32 hash (test run) : B1DAD4C4
CRC32 hash : B1DAD4C4
CRC32 hash (skip zero) : F544D20D
AccurateRip signature : 4AA54D58
->Accurately ripped! (confidence 10)
Statistics
Read error : 0
Skipped (treated as error) : 0
Edge jitter error (maybe fixed) : 0
Atom jitter error (maybe fixed) : 0
Drift error (maybe fixed) : 0
Dropped bytes error (maybe fixed) : 0
Duplicated bytes error (maybe fixed) : 0
Inconsistency in error sectors : 0

Track 04
CRC32 hash (test run) : 20903CD1
CRC32 hash : 20903CD1
CRC32 hash (skip zero) : 9028EDE2
AccurateRip signature : 6DCECE72
->Accurately ripped! (confidence 10)
Statistics
Read error : 0
Skipped (treated as error) : 0
Edge jitter error (maybe fixed) : 0
Atom jitter error (maybe fixed) : 0
Drift error (maybe fixed) : 0
Dropped bytes error (maybe fixed) : 0
Duplicated bytes error (maybe fixed) : 0
Inconsistency in error sectors : 0

Track 05
CRC32 hash (test run) : A155FDE6
CRC32 hash : A155FDE6
CRC32 hash (skip zero) : 4FDEF335
AccurateRip signature : 87EE00F1
->Accurately ripped! (confidence 10)
Statistics
Read error : 0
Skipped (treated as error) : 0
Edge jitter error (maybe fixed) : 0
Atom jitter error (maybe fixed) : 0
Drift error (maybe fixed) : 0
Dropped bytes error (maybe fixed) : 0
Duplicated bytes error (maybe fixed) : 0
Inconsistency in error sectors : 0

Track 06
CRC32 hash (test run) : 0FA6446D
CRC32 hash : 0FA6446D
CRC32 hash (skip zero) : 3B2D1A93
AccurateRip signature : 3959E256
->Accurately ripped! (confidence 10)
Statistics
Read error : 0
Skipped (treated as error) : 0
Edge jitter error (maybe fixed) : 0
Atom jitter error (maybe fixed) : 0
Drift error (maybe fixed) : 0
Dropped bytes error (maybe fixed) : 0
Duplicated bytes error (maybe fixed) : 0
Inconsistency in error sectors : 0

Track 07
CRC32 hash (test run) : 2994B5F5
CRC32 hash : 2994B5F5
CRC32 hash (skip zero) : 073958D6
AccurateRip signature : 5AF827D9
->Accurately ripped! (confidence 10)
Statistics
Read error : 0
Skipped (treated as error) : 0
Edge jitter error (maybe fixed) : 0
Atom jitter error (maybe fixed) : 0
Drift error (maybe fixed) : 0
Dropped bytes error (maybe fixed) : 0
Duplicated bytes error (maybe fixed) : 0
Inconsistency in error sectors : 0

Track 08
CRC32 hash (test run) : 449B1AC9
CRC32 hash : 449B1AC9
CRC32 hash (skip zero) : BF9F8686
AccurateRip signature : D16EDFA5
->Accurately ripped! (confidence 10)
Statistics
Read error : 0
Skipped (treated as error) : 0
Edge jitter error (maybe fixed) : 0
Atom jitter error (maybe fixed) : 0
Drift error (maybe fixed) : 0
Dropped bytes error (maybe fixed) : 0
Duplicated bytes error (maybe fixed) : 0
Inconsistency in error sectors : 0

Track 09
CRC32 hash (test run) : 68794189
CRC32 hash : 68794189
CRC32 hash (skip zero) : 5B3A58B4
AccurateRip signature : 9CC4391B
->Accurately ripped! (confidence 10)
Statistics
Read error : 0
Skipped (treated as error) : 0
Edge jitter error (maybe fixed) : 0
Atom jitter error (maybe fixed) : 0
Drift error (maybe fixed) : 0
Dropped bytes error (maybe fixed) : 0
Duplicated bytes error (maybe fixed) : 0
Inconsistency in error sectors : 0

Track 10
CRC32 hash (test run) : 559772AA
CRC32 hash : 559772AA
CRC32 hash (skip zero) : 86D42488
AccurateRip signature : 129CD327
->Accurately ripped! (confidence 9)
Statistics
Read error : 0
Skipped (treated as error) : 0
Edge jitter error (maybe fixed) : 0
Atom jitter error (maybe fixed) : 0
Drift error (maybe fixed) : 0
Dropped bytes error (maybe fixed) : 0
Duplicated bytes error (maybe fixed) : 0
Inconsistency in error sectors : 0

No errors occurred

End of status report

01 - Weight Of The World [3:43]
02 - Violent Side [4:23]
03 - Hippie Dream [4:14]
04 - Bad News Beat [3:17]
05 - Touch The Night [4:31]
06 - People On The Street [4:34]
07 - Hard Luck Stories [4:09]
08 - I Got A Problem [3:19]
09 - Pressure [2:47]
10 - Drifter [5:04]
Exact Audio Copy V1.0 beta 3 from 29. August 2011

EAC extraction logfile from 28. November 2012, 23:28

Neil Young / Landing On Water

Used drive : PIONEER DVD-RW DVR-115D Adapter: 1 ID: 0

Read mode : Secure
Utilize accurate stream : Yes
Defeat audio cache : Yes
Make use of C2 pointers : No

Read offset correction : 48
Overread into Lead-In and Lead-Out : No
Fill up missing offset samples with silence : Yes
Delete leading and trailing silent blocks : No
Null samples used in CRC calculations : Yes
Used interface : Installed external ASPI interface

Used output format : User Defined Encoder
Selected bitrate : 320 kBit/s
Quality : High
Add ID3 tag : No
Command line compressor : C:\Program Files\Exact Audio Copy 1.0\Flac\flac.exe
Additional command line options : -V -8 -T "Genre=%genre%" -T "Artist=%artist%" -T "Title=%title%" -T "Album=%albumtitle%" -T "Date=%year%" -T "Tracknumber=%tracknr%" -T "Comment=%comment%" %source%

TOC of the extracted CD

Track | Start | Length | Start sector | End sector
---------------------------------------------------------
1 | 0:00.37 | 3:43.25 | 37 | 16786
2 | 3:43.62 | 4:22.73 | 16787 | 36509
3 | 8:06.60 | 4:14.57 | 36510 | 55616
4 | 12:21.42 | 3:18.15 | 55617 | 70481
5 | 15:39.57 | 4:31.45 | 70482 | 90851
6 | 20:11.27 | 4:33.58 | 90852 | 111384
7 | 24:45.10 | 4:09.47 | 111385 | 130106
8 | 28:54.57 | 3:19.73 | 130107 | 145104
9 | 32:14.55 | 2:46.62 | 145105 | 157616
10 | 35:01.42 | 5:06.43 | 157617 | 180609

Range status and errors

Selected range

Filename K:\Lossless Temp\Neil Young\16 - Neil Young - Landing On Water - 1986 (1986 Geffen Records, GEFD 24109)\Neil Young - Landing On Water.wav

Peak level 100.0 %
Extraction speed 5.5 X
Range quality 100.0 %
Test CRC CA9F34AB
Copy CRC CA9F34AB
Copy OK

No errors occurred

AccurateRip summary

Track 1 accurately ripped (confidence 2) [A7C50A71] (AR v2)
Track 2 accurately ripped (confidence 2) [8158A1F0] (AR v2)
Track 3 accurately ripped (confidence 2) [3AED7B10] (AR v2)
Track 4 accurately ripped (confidence 2) [3708F685] (AR v2)
Track 5 accurately ripped (confidence 2) [D90E3814] (AR v2)
Track 6 accurately ripped (confidence 2) [C1D733F6] (AR v2)
Track 7 accurately ripped (confidence 2) [42885952] (AR v2)
Track 8 accurately ripped (confidence 2) [7FCF7D8D] (AR v2)
Track 9 accurately ripped (confidence 2) [BB7A3CA3] (AR v2)
Track 10 accurately ripped (confidence 2) [AEEAFDE3] (AR v2)

All tracks accurately ripped

End of status report

==== Log checksum FCDE85935D8DE233823FA1E838012990DF8A36D30CA64DBE2F0F523F98BFACC7 ====

01 - Ten Men Workin' [6:28]
02 - This Note's For You [2:05]
03 - Coupe De Ville [4:18]
04 - Life In The City [3:14]
05 - Twilight [5:54]
06 - Married Men [2:39]
07 - Sunny Inside [2:37]
08 - Can't Believe Your Lyin' [2:58]
09 - Hey Hey [3:05]
10 - One Thing [6:01]
Exact Audio Copy V1.0 beta 3 from 29. August 2011

EAC extraction logfile from 27. May 2012, 20:41

Neil Young & The Bluenotes / This Note's For You

Used drive : PIONEER DVD-RW DVR-115D Adapter: 1 ID: 0

Read mode : Secure
Utilize accurate stream : Yes
Defeat audio cache : Yes
Make use of C2 pointers : No

Read offset correction : 48
Overread into Lead-In and Lead-Out : No
Fill up missing offset samples with silence : Yes
Delete leading and trailing silent blocks : No
Null samples used in CRC calculations : Yes
Used interface : Installed external ASPI interface

Used output format : User Defined Encoder
Selected bitrate : 320 kBit/s
Quality : High
Add ID3 tag : No
Command line compressor : C:\Program Files\Exact Audio Copy 1.0\Flac\flac.exe
Additional command line options : -V -8 -T "Genre=%genre%" -T "Artist=%artist%" -T "Title=%title%" -T "Album=%albumtitle%" -T "Date=%year%" -T "Tracknumber=%tracknr%" -T "Comment=%comment%" %source%

TOC of the extracted CD

Track | Start | Length | Start sector | End sector
---------------------------------------------------------
1 | 0:00.32 | 6:28.48 | 32 | 29179
2 | 6:29.05 | 2:06.00 | 29180 | 38629
3 | 8:35.05 | 4:18.07 | 38630 | 57986
4 | 12:53.12 | 3:13.60 | 57987 | 72521
5 | 16:06.72 | 5:54.40 | 72522 | 99111
6 | 22:01.37 | 2:38.68 | 99112 | 111029
7 | 24:40.30 | 2:37.02 | 111030 | 122806
8 | 27:17.32 | 2:58.50 | 122807 | 136206
9 | 30:16.07 | 3:05.35 | 136207 | 150116
10 | 33:21.42 | 6:02.18 | 150117 | 177284

Range status and errors

Selected range

Filename K:\Lossless Temp\Neil Young\Neil Young - This Note's For You - 1988\Neil Young & The Bluenotes - This Note's For You.wav

Peak level 88.4 %
Extraction speed 5.6 X
Range quality 100.0 %
Test CRC 22DA6A18
Copy CRC 22DA6A18
Copy OK

No errors occurred

AccurateRip summary

Track 1 accurately ripped (confidence 3) [25277B57] (AR v1)
Track 2 accurately ripped (confidence 4) [EB76B687] (AR v1)
Track 3 accurately ripped (confidence 4) [00724C44] (AR v1)
Track 4 accurately ripped (confidence 4) [E35D287B] (AR v1)
Track 5 accurately ripped (confidence 4) [DBEC01FC] (AR v1)
Track 6 accurately ripped (confidence 4) [DE825E9F] (AR v1)
Track 7 accurately ripped (confidence 4) [AED39918] (AR v1)
Track 8 accurately ripped (confidence 4) [ACA604C4] (AR v1)
Track 9 accurately ripped (confidence 4) [BED55B38] (AR v1)
Track 10 accurately ripped (confidence 4) [03467615] (AR v1)

All tracks accurately ripped

End of status report

==== Log checksum 94CCF8C02F9B565A84B8850D710A895EFF0E121434D77BC42673A6F3B5389EBD ====

01 - Rockin' In The Free World [3:41]
02 - Crime In The City (Sixty To Zero Part I) [8:45]
03 - Don't Cry [4:16]
04 - Hangin' On A Limb [4:19]
05 - Eldorado [6:05]
06 - The Ways Of Love [4:30]
07 - Someday [5:42]
08 - On Broadway [4:59]
09 - Wrecking Ball [5:10]
10 - No More [6:06]
11 - Too Far Gone [2:49]
12 - Rockin' In The Free World [4:42]
Exact Audio Copy V1.0 beta 3 from 29. August 2011

EAC extraction logfile from 29. November 2012, 1:44

Neil Young / Freedom

Used drive : PIONEER DVD-RW DVR-115D Adapter: 1 ID: 0

Read mode : Secure
Utilize accurate stream : Yes
Defeat audio cache : Yes
Make use of C2 pointers : No

Read offset correction : 48
Overread into Lead-In and Lead-Out : No
Fill up missing offset samples with silence : Yes
Delete leading and trailing silent blocks : No
Null samples used in CRC calculations : Yes
Used interface : Installed external ASPI interface

Used output format : User Defined Encoder
Selected bitrate : 320 kBit/s
Quality : High
Add ID3 tag : No
Command line compressor : C:\Program Files\Exact Audio Copy 1.0\Flac\flac.exe
Additional command line options : -V -8 -T "Genre=%genre%" -T "Artist=%artist%" -T "Title=%title%" -T "Album=%albumtitle%" -T "Date=%year%" -T "Tracknumber=%tracknr%" -T "Comment=%comment%" %source%

TOC of the extracted CD

Track | Start | Length | Start sector | End sector
---------------------------------------------------------
1 | 0:00.00 | 3:40.33 | 0 | 16532
2 | 3:40.33 | 8:44.65 | 16533 | 55897
3 | 12:25.23 | 4:15.65 | 55898 | 75087
4 | 16:41.13 | 4:19.12 | 75088 | 94524
5 | 21:00.25 | 6:05.20 | 94525 | 121919
6 | 27:05.45 | 4:29.23 | 121920 | 142117
7 | 31:34.68 | 5:42.15 | 142118 | 167782
8 | 37:17.08 | 4:59.05 | 167783 | 190212
9 | 42:16.13 | 5:09.65 | 190213 | 213452
10 | 47:26.03 | 6:06.17 | 213453 | 240919
11 | 53:32.20 | 2:48.43 | 240920 | 253562
12 | 56:20.63 | 4:41.70 | 253563 | 274707

Range status and errors

Selected range

Filename K:\Lossless Temp\Neil Young\19 - Neil Young - Freedom - 1989 (1995 Reprise Records, 7599-25899-2)\Neil Young - Freedom.wav

Peak level 97.7 %
Extraction speed 6.2 X
Range quality 100.0 %
Test CRC 3C2A4689
Copy CRC 3C2A4689
Copy OK

No errors occurred

AccurateRip summary

Track 1 accurately ripped (confidence 15) [A178ADF0] (AR v2)
Track 2 accurately ripped (confidence 15) [C2D59239] (AR v2)
Track 3 accurately ripped (confidence 15) [C78C0523] (AR v2)
Track 4 accurately ripped (confidence 15) [89595329] (AR v2)
Track 5 accurately ripped (confidence 15) [7A08C10D] (AR v2)
Track 6 accurately ripped (confidence 14) [3942D44B] (AR v2)
Track 7 accurately ripped (confidence 14) [535860BF] (AR v2)
Track 8 accurately ripped (confidence 15) [052F1053] (AR v2)
Track 9 accurately ripped (confidence 15) [892E4FAB] (AR v2)
Track 10 accurately ripped (confidence 14) [751E775D] (AR v2)
Track 11 accurately ripped (confidence 15) [9CC9FB95] (AR v2)
Track 12 accurately ripped (confidence 15) [1F79C4C4] (AR v2)

All tracks accurately ripped

End of status report

==== Log checksum 1D26C3D8701AC0B1A4EBBEC025D7CA898FCC13C94A9F39262AB015EADA9C95B0 ====

1. Unknown Legend - 4:33
2. From Hank To Hendrix - 5:17
3. You And Me - 3:45
4. Harvest Moon - 5:05
5. War Of Man - 5:43
6. One Of These Days - 4:57
7. Such A Woman - 4:37
8. Old King - 2:57
9. Dreamin' Man - 4:36
10. Natural Beauty - 10:24
Exact Audio Copy V1.0 beta 3 from 29. August 2011

EAC extraction logfile from 29. November 2012, 2:13

Neil Young / Harvest Moon

Used drive : PIONEER DVD-RW DVR-115D Adapter: 1 ID: 0

Read mode : Secure
Utilize accurate stream : Yes
Defeat audio cache : Yes
Make use of C2 pointers : No

Read offset correction : 48
Overread into Lead-In and Lead-Out : No
Fill up missing offset samples with silence : Yes
Delete leading and trailing silent blocks : No
Null samples used in CRC calculations : Yes
Used interface : Installed external ASPI interface

Used output format : User Defined Encoder
Selected bitrate : 320 kBit/s
Quality : High
Add ID3 tag : No
Command line compressor : C:\Program Files\Exact Audio Copy 1.0\Flac\flac.exe
Additional command line options : -V -8 -T "Genre=%genre%" -T "Artist=%artist%" -T "Title=%title%" -T "Album=%albumtitle%" -T "Date=%year%" -T "Tracknumber=%tracknr%" -T "Comment=%comment%" %source%

TOC of the extracted CD

Track | Start | Length | Start sector | End sector
---------------------------------------------------------
1 | 0:00.32 | 4:32.55 | 32 | 20486
2 | 4:33.12 | 5:17.28 | 20487 | 44289
3 | 9:50.40 | 3:45.42 | 44290 | 61206
4 | 13:36.07 | 5:05.23 | 61207 | 84104
5 | 18:41.30 | 5:43.67 | 84105 | 109896
6 | 24:25.22 | 4:57.63 | 109897 | 132234
7 | 29:23.10 | 4:37.55 | 132235 | 153064
8 | 34:00.65 | 2:57.00 | 153065 | 166339
9 | 36:57.65 | 4:36.62 | 166340 | 187101
10 | 41:34.52 | 10:23.20 | 187102 | 233846

Range status and errors

Selected range

Filename K:\Lossless Temp\Neil Young\21 - Neil Young - Harvest Moon - 1992 (Reprise Records, 9 45057-2)\Neil Young - Harvest Moon.wav

Peak level 100.0 %
Extraction speed 5.8 X
Range quality 100.0 %
Test CRC DE325A17
Copy CRC DE325A17
Copy OK

No errors occurred

AccurateRip summary

Track 1 accurately ripped (confidence 3) [3B72C350] (AR v2)
Track 2 accurately ripped (confidence 3) [6F78DA15] (AR v2)
Track 3 accurately ripped (confidence 3) [645C315E] (AR v2)
Track 4 accurately ripped (confidence 3) [9D660194] (AR v2)
Track 5 accurately ripped (confidence 3) [9610205C] (AR v2)
Track 6 accurately ripped (confidence 3) [627C788E] (AR v2)
Track 7 accurately ripped (confidence 3) [A751D97E] (AR v2)
Track 8 accurately ripped (confidence 3) [B7DF7F4B] (AR v2)
Track 9 accurately ripped (confidence 3) [D505328E] (AR v2)
Track 10 accurately ripped (confidence 3) [E375EA8A] (AR v2)

All tracks accurately ripped

End of status report

==== Log checksum 21FB71614A95D1117D79ACA09331C4637949D6DC360D244694FCE11DA91727B4 ====

01 - Song X [4:41]
02 - Act Of Love [4:55]
03 - I'm The Ocean [7:06]
04 - Big Green Country [5:08]
05 - Truth Be Known [4:39]
06 - Downtown [5:11]
07 - What Happened Yesterday [0:46]
08 - Peace And Love [7:02]
09 - Throw Your Hatred Down [5:46]
10 - Scenery [8:51]
11 - Fallen Angel [1:15]
Exact Audio Copy V1.0 beta 3 from 29. August 2011

EAC extraction logfile from 25. November 2012, 2:09

Neil Young / Mirror Ball

Used drive : PIONEER DVD-RW DVR-115D Adapter: 1 ID: 0

Read mode : Secure
Utilize accurate stream : Yes
Defeat audio cache : Yes
Make use of C2 pointers : No

Read offset correction : 48
Overread into Lead-In and Lead-Out : No
Fill up missing offset samples with silence : Yes
Delete leading and trailing silent blocks : No
Null samples used in CRC calculations : Yes
Used interface : Installed external ASPI interface

Used output format : User Defined Encoder
Selected bitrate : 320 kBit/s
Quality : High
Add ID3 tag : No
Command line compressor : C:\Program Files\Exact Audio Copy 1.0\Flac\flac.exe
Additional command line options : -V -8 -T "Genre=%genre%" -T "Artist=%artist%" -T "Title=%title%" -T "Album=%albumtitle%" -T "Date=%year%" -T "Tracknumber=%tracknr%" -T "Comment=%comment%" %source%

TOC of the extracted CD

Track | Start | Length | Start sector | End sector
---------------------------------------------------------
1 | 0:00.00 | 4:40.52 | 0 | 21051
2 | 4:40.52 | 4:54.48 | 21052 | 43149
3 | 9:35.25 | 7:05.72 | 43150 | 75096
4 | 16:41.22 | 5:08.20 | 75097 | 98216
5 | 21:49.42 | 4:39.15 | 98217 | 119156
6 | 26:28.57 | 5:10.60 | 119157 | 142466
7 | 31:39.42 | 0:45.68 | 142467 | 145909
8 | 32:25.35 | 7:02.32 | 145910 | 177591
9 | 39:27.67 | 5:45.73 | 177592 | 203539
10 | 45:13.65 | 8:50.37 | 203540 | 243326
11 | 54:04.27 | 1:15.05 | 243327 | 248956

Range status and errors

Selected range

Filename K:\Lossless Temp\Neil Young\23 - Neil Young - Mirror Ball - 1995 (1995 Reprise Records, 9362-45934-2)\Neil Young - Mirror Ball.wav

Peak level 96.5 %
Extraction speed 5.8 X
Range quality 100.0 %
Test CRC FF897F98
Copy CRC FF897F98
Copy OK

No errors occurred

AccurateRip summary

Track 1 accurately ripped (confidence 5) [7371E1E8] (AR v2)
Track 2 accurately ripped (confidence 5) [08C063EA] (AR v2)
Track 3 accurately ripped (confidence 5) [3D354765] (AR v2)
Track 4 accurately ripped (confidence 5) [A75A3EF9] (AR v2)
Track 5 accurately ripped (confidence 5) [AB2ADAC7] (AR v2)
Track 6 accurately ripped (confidence 5) [823D0240] (AR v2)
Track 7 accurately ripped (confidence 5) [701435F2] (AR v2)
Track 8 accurately ripped (confidence 5) [85BCD314] (AR v2)
Track 9 accurately ripped (confidence 5) [142A255F] (AR v2)
Track 10 accurately ripped (confidence 5) [C6F1D9AB] (AR v2)
Track 11 accurately ripped (confidence 5) [3DF7BFAC] (AR v2)

All tracks accurately ripped

End of status report

==== Log checksum 66585EF8573BB44DE8CFF9899B676650EF0082C713127B4AD6353C741B212AF1 ====

01 - Good To See You [2:50]
02 - Silver & Gold [3:17]
03 - Daddy Went Walkin' [4:02]
04 - Buffalo Springfield Again [3:23]
05 - The Great Divide [4:34]
06 - Horseshoe Man [4:00]
07 - Red Sun [2:48]
08 - Distant Camera [4:07]
09 - Razor Love [6:31]
10 - Without Rings [3:42]
X Lossless Decoder version 20091129 (114.3)

XLD extraction logfile from 2011-08-13 18:21:32 +0100

Neil Young / Silver & Gold

Used drive : PIONEER DVD-RW DVR-218L (revision 1.02)

Use cdparanoia mode : YES (CDParanoia III 10.2 engine)
Disable audio cache : OK for the drive with cache less than 2750KB
Make use of C2 pointers : NO
Read offset correction : 6
Max retry count : 100

TOC of the extracted CD
Track | Start | Length | Start sector | End sector
---------------------------------------------------------
1 | 00:00:00 | 02:50:45 | 0 | 12794
2 | 02:50:45 | 03:16:42 | 12795 | 27536
3 | 06:07:12 | 04:01:53 | 27537 | 45664
4 | 10:08:65 | 03:23:27 | 45665 | 60916
5 | 13:32:17 | 04:34:40 | 60917 | 81506
6 | 18:06:57 | 04:00:15 | 81507 | 99521
7 | 22:06:72 | 02:48:30 | 99522 | 112151
8 | 24:55:27 | 04:07:38 | 112152 | 130714
9 | 29:02:65 | 06:31:10 | 130715 | 160049
10 | 35:34:00 | 03:41:55 | 160050 | 176679

List of alternate offset correction values
# | Absolute | Relative | Confidence
------------------------------------------
1 | -658 | -664 | 13

All Tracks
Filename : /Volumes/DISC1/Lossless Temp/Neil Young/Neil Young - Silver & Gold - 2000/Silver & Gold.flac
CRC32 hash (test run) : 543DF87C
CRC32 hash : 543DF87C
CRC32 hash (skip zero) : 75A4DAA2
Statistics
Read error : 0
Skipped (treated as error) : 0
Edge jitter error (maybe fixed) : 0
Atom jitter error (maybe fixed) : 0
Drift error (maybe fixed) : 0
Dropped bytes error (maybe fixed) : 0
Duplicated bytes error (maybe fixed) : 0
Inconsistency in error sectors : 0

Track 01
CRC32 hash (test run) : 21B1490B
CRC32 hash : 21B1490B
CRC32 hash (skip zero) : F43452F7
AccurateRip signature : 69BBE0A6
->Accurately ripped! (confidence 159)
Statistics
Read error : 0
Skipped (treated as error) : 0
Edge jitter error (maybe fixed) : 0
Atom jitter error (maybe fixed) : 0
Drift error (maybe fixed) : 0
Dropped bytes error (maybe fixed) : 0
Duplicated bytes error (maybe fixed) : 0
Inconsistency in error sectors : 0

Track 02
CRC32 hash (test run) : C146CE34
CRC32 hash : C146CE34
CRC32 hash (skip zero) : 7911A7D6
AccurateRip signature : B5966375
->Accurately ripped! (confidence 160)
Statistics
Read error : 0
Skipped (treated as error) : 0
Edge jitter error (maybe fixed) : 0
Atom jitter error (maybe fixed) : 0
Drift error (maybe fixed) : 0
Dropped bytes error (maybe fixed) : 0
Duplicated bytes error (maybe fixed) : 0
Inconsistency in error sectors : 0

Track 03
CRC32 hash (test run) : F74835A8
CRC32 hash : F74835A8
CRC32 hash (skip zero) : C5027CDD
AccurateRip signature : EBB34CE1
->Accurately ripped! (confidence 157)
Statistics
Read error : 0
Skipped (treated as error) : 0
Edge jitter error (maybe fixed) : 0
Atom jitter error (maybe fixed) : 0
Drift error (maybe fixed) : 0
Dropped bytes error (maybe fixed) : 0
Duplicated bytes error (maybe fixed) : 0
Inconsistency in error sectors : 0

Track 04
CRC32 hash (test run) : 9E75DE26
CRC32 hash : 9E75DE26
CRC32 hash (skip zero) : 4BD6BE85
AccurateRip signature : 03F88B80
->Accurately ripped! (confidence 160)
Statistics
Read error : 0
Skipped (treated as error) : 0
Edge jitter error (maybe fixed) : 0
Atom jitter error (maybe fixed) : 0
Drift error (maybe fixed) : 0
Dropped bytes error (maybe fixed) : 0
Duplicated bytes error (maybe fixed) : 0
Inconsistency in error sectors : 0

Track 05
CRC32 hash (test run) : F75BA37C
CRC32 hash : F75BA37C
CRC32 hash (skip zero) : 333C89CB
AccurateRip signature : 3C72447E
->Accurately ripped! (confidence 157)
Statistics
Read error : 0
Skipped (treated as error) : 0
Edge jitter error (maybe fixed) : 0
Atom jitter error (maybe fixed) : 0
Drift error (maybe fixed) : 0
Dropped bytes error (maybe fixed) : 0
Duplicated bytes error (maybe fixed) : 0
Inconsistency in error sectors : 0

Track 06
CRC32 hash (test run) : 7EC187D2
CRC32 hash : 7EC187D2
CRC32 hash (skip zero) : 2E0B96FB
AccurateRip signature : 933B6E36
->Accurately ripped! (confidence 160)
Statistics
Read error : 0
Skipped (treated as error) : 0
Edge jitter error (maybe fixed) : 0
Atom jitter error (maybe fixed) : 0
Drift error (maybe fixed) : 0
Dropped bytes error (maybe fixed) : 0
Duplicated bytes error (maybe fixed) : 0
Inconsistency in error sectors : 0

Track 07
CRC32 hash (test run) : DA0EE5B7
CRC32 hash : DA0EE5B7
CRC32 hash (skip zero) : DBA1F49F
AccurateRip signature : 9BE1EE63
->Accurately ripped! (confidence 161)
Statistics
Read error : 0
Skipped (treated as error) : 0
Edge jitter error (maybe fixed) : 0
Atom jitter error (maybe fixed) : 0
Drift error (maybe fixed) : 0
Dropped bytes error (maybe fixed) : 0
Duplicated bytes error (maybe fixed) : 0
Inconsistency in error sectors : 0

Track 08
CRC32 hash (test run) : 88FFE1EE
CRC32 hash : 88FFE1EE
CRC32 hash (skip zero) : A0C4A7B4
AccurateRip signature : E1987556
->Accurately ripped! (confidence 162)
Statistics
Read error : 0
Skipped (treated as error) : 0
Edge jitter error (maybe fixed) : 0
Atom jitter error (maybe fixed) : 0
Drift error (maybe fixed) : 0
Dropped bytes error (maybe fixed) : 0
Duplicated bytes error (maybe fixed) : 0
Inconsistency in error sectors : 0

Track 09
CRC32 hash (test run) : 27D2141F
CRC32 hash : 27D2141F
CRC32 hash (skip zero) : 7BD4A3F1
AccurateRip signature : 6E8584FD
->Accurately ripped! (confidence 162)
Statistics
Read error : 0
Skipped (treated as error) : 0
Edge jitter error (maybe fixed) : 0
Atom jitter error (maybe fixed) : 0
Drift error (maybe fixed) : 0
Dropped bytes error (maybe fixed) : 0
Duplicated bytes error (maybe fixed) : 0
Inconsistency in error sectors : 0

Track 10
CRC32 hash (test run) : F7115C41
CRC32 hash : F7115C41
CRC32 hash (skip zero) : 289F49BC
AccurateRip signature : 90BE10E1
->Accurately ripped! (confidence 156)
Statistics
Read error : 0
Skipped (treated as error) : 0
Edge jitter error (maybe fixed) : 0
Atom jitter error (maybe fixed) : 0
Drift error (maybe fixed) : 0
Dropped bytes error (maybe fixed) : 0
Duplicated bytes error (maybe fixed) : 0
Inconsistency in error sectors : 0

No errors occurred

End of status report

1. You're My Girl (4:41)
2. Mr. Disappointment (5:25)
3. Differently (6:02)
4. Quit (Don't Say You Love Me) (6:02)
5. Let's Roll (5:52)
6. Are You Passionate? (5:08)
7. Goin' Home (8:48)
8. When I Hold You In My Arms (4:42)
9. Be With You (3:32)
10. Two Old Friends (6:14)
11. She's A Healer (9:08)
Exact Audio Copy V1.0 beta 3 from 29. August 2011

EAC extraction logfile from 28. November 2012, 21:33

Neil Young / Are You Passionate?

Used drive : PIONEER DVD-RW DVR-115D Adapter: 1 ID: 0

Read mode : Secure
Utilize accurate stream : Yes
Defeat audio cache : Yes
Make use of C2 pointers : No

Read offset correction : 48
Overread into Lead-In and Lead-Out : No
Fill up missing offset samples with silence : Yes
Delete leading and trailing silent blocks : No
Null samples used in CRC calculations : Yes
Used interface : Installed external ASPI interface

Used output format : User Defined Encoder
Selected bitrate : 320 kBit/s
Quality : High
Add ID3 tag : No
Command line compressor : C:\Program Files\Exact Audio Copy 1.0\Flac\flac.exe
Additional command line options : -V -8 -T "Genre=%genre%" -T "Artist=%artist%" -T "Title=%title%" -T "Album=%albumtitle%" -T "Date=%year%" -T "Tracknumber=%tracknr%" -T "Comment=%comment%" %source%

TOC of the extracted CD

Track | Start | Length | Start sector | End sector
---------------------------------------------------------
1 | 0:00.00 | 4:41.17 | 0 | 21091
2 | 4:41.17 | 5:26.51 | 21092 | 45592
3 | 10:07.68 | 6:04.64 | 45593 | 72956
4 | 16:12.57 | 6:02.10 | 72957 | 100116
5 | 22:14.67 | 5:54.59 | 100117 | 126725
6 | 28:09.51 | 5:08.27 | 126726 | 149852
7 | 33:18.03 | 8:49.22 | 149853 | 189549
8 | 42:07.25 | 4:44.66 | 189550 | 210915
9 | 46:52.16 | 3:32.47 | 210916 | 226862
10 | 50:24.63 | 6:15.67 | 226863 | 255054
11 | 56:40.55 | 9:08.51 | 255055 | 296205

Range status and errors

Selected range

Filename K:\Lossless Temp\Neil Young\26 - Neil Young - Are You Passionate - 2002 (2002 Reprise Records, 9362-48111-2)\Neil Young - Are You Passionate.wav

Peak level 100.0 %
Extraction speed 6.1 X
Range quality 100.0 %
Test CRC 71747D7F
Copy CRC 71747D7F
Copy OK

No errors occurred

AccurateRip summary

Track 1 accurately ripped (confidence 14) [1C0D495A] (AR v2)
Track 2 accurately ripped (confidence 14) [F1E57D5D] (AR v2)
Track 3 accurately ripped (confidence 14) [514E94D7] (AR v2)
Track 4 accurately ripped (confidence 14) [93BE0F5C] (AR v2)
Track 5 accurately ripped (confidence 14) [75D34BA9] (AR v2)
Track 6 accurately ripped (confidence 14) [EA43258D] (AR v2)
Track 7 accurately ripped (confidence 14) [70F9F099] (AR v2)
Track 8 accurately ripped (confidence 14) [D30663DE] (AR v2)
Track 9 accurately ripped (confidence 14) [CF648B28] (AR v2)
Track 10 accurately ripped (confidence 14) [D5019178] (AR v2)
Track 11 accurately ripped (confidence 14) [B52EC2D3] (AR v2)

All tracks accurately ripped

End of status report

==== Log checksum F2E3AE32F09DDA3A5F9315CCA4370BCFA9F6B903104824B797A5C04A9D9473B2 ====

1. "The Painter" – 4:36
2. "No Wonder" – 5:45
3. "Falling Off the Face of the Earth" – 3:35
4. "Far From Home" – 3:47
5. "It's a Dream" – 6:31
6. "Prairie Wind" – 7:34
7. "Here for You" – 4:32
8. "This Old Guitar" – 5:32
9. "He Was the King" – 6:08
10. "When God Made Me" – 4:05
Exact Audio Copy V1.0 beta 3 from 29. August 2011

EAC extraction logfile from 22. December 2012, 5:40

Neil Young / Prairie Wind

Used drive : PLEXTOR DVDR PX-891SA Adapter: 0 ID: 2

Read mode : Secure
Utilize accurate stream : Yes
Defeat audio cache : Yes
Make use of C2 pointers : No

Read offset correction : 6
Overread into Lead-In and Lead-Out : No
Fill up missing offset samples with silence : Yes
Delete leading and trailing silent blocks : No
Null samples used in CRC calculations : Yes
Used interface : Installed external ASPI interface

Used output format : User Defined Encoder
Selected bitrate : 320 kBit/s
Quality : High
Add ID3 tag : No
Command line compressor : C:\Program Files\Exact Audio Copy 1.0\Flac\flac.exe
Additional command line options : -V -8 -T "Genre=%genre%" -T "Artist=%artist%" -T "Title=%title%" -T "Album=%albumtitle%" -T "Date=%year%" -T "Tracknumber=%tracknr%" -T "Comment=%comment%" %source%

TOC of the extracted CD

Track | Start | Length | Start sector | End sector
---------------------------------------------------------
1 | 0:00.00 | 4:36.36 | 0 | 20735
2 | 4:36.36 | 5:45.42 | 20736 | 46652
3 | 10:22.03 | 3:35.20 | 46653 | 62797
4 | 13:57.23 | 3:47.34 | 62798 | 79856
5 | 17:44.57 | 6:31.69 | 79857 | 109250
6 | 24:16.51 | 7:34.41 | 109251 | 143341
7 | 31:51.17 | 4:32.28 | 143342 | 163769
8 | 36:23.45 | 5:32.64 | 163770 | 188733
9 | 41:56.34 | 6:08.68 | 188734 | 216401
10 | 48:05.27 | 4:05.42 | 216402 | 234818

Range status and errors

Selected range

Filename K:\Lossless Temp\Neil Young\28 - Neil Young - Prairie Wind - 2005 (2005 Reprise Records, 9362-49593-2)\Neil Young - Prairie Wind.wav

Peak level 97.1 %
Extraction speed 1.5 X
Range quality 100.0 %
Test CRC E177A712
Copy CRC E177A712
Copy OK

No errors occurred

AccurateRip summary

Track 1 accurately ripped (confidence 38) [7A5A92CE] (AR v2)
Track 2 accurately ripped (confidence 38) [52552BB6] (AR v2)
Track 3 accurately ripped (confidence 38) [2779C92F] (AR v2)
Track 4 accurately ripped (confidence 38) [A2D4FDE1] (AR v2)
Track 5 accurately ripped (confidence 38) [B3D987F3] (AR v2)
Track 6 accurately ripped (confidence 38) [C92A93C4] (AR v2)
Track 7 accurately ripped (confidence 38) [D6308ECD] (AR v2)
Track 8 accurately ripped (confidence 38) [7927BD81] (AR v2)
Track 9 accurately ripped (confidence 38) [05439582] (AR v2)
Track 10 accurately ripped (confidence 38) [5C3E7A7A] (AR v2)

All tracks accurately ripped

End of status report

==== Log checksum 21707F907E17F061E58E3A78B5E4C31A134C4C2A8316D2A5E527FDABA67A4A55 ====

01. After the Garden (03:23)
02. Living With War (05:04)
03. The Restless Consumer (05:47)
04. Shock and Awe (04:52)
05. Families (02:25)
06. Flags of Freedom (03:42)
07. Let's Impeach the President (05:10)
08. Lookin' for a Leader (04:03)
09. Roger and Out (04:25)
10. America the Beautiful (02:56)
Exact Audio Copy V1.0 beta 3 from 29. August 2011

EAC extraction logfile from 6. September 2012, 15:47

Neil Young / Living With War

Used drive : PIONEER DVD-RW DVR-115D Adapter: 1 ID: 0

Read mode : Secure
Utilize accurate stream : Yes
Defeat audio cache : Yes
Make use of C2 pointers : No

Read offset correction : 48
Overread into Lead-In and Lead-Out : No
Fill up missing offset samples with silence : Yes
Delete leading and trailing silent blocks : No
Null samples used in CRC calculations : Yes
Used interface : Installed external ASPI interface

Used output format : User Defined Encoder
Selected bitrate : 320 kBit/s
Quality : High
Add ID3 tag : No
Command line compressor : C:\Program Files\Exact Audio Copy 1.0\Flac\flac.exe
Additional command line options : -V -8 -T "Genre=%genre%" -T "Artist=%artist%" -T "Title=%title%" -T "Album=%albumtitle%" -T "Date=%year%" -T "Tracknumber=%tracknr%" -T "Comment=%comment%" %source%

TOC of the extracted CD

Track | Start | Length | Start sector | End sector
---------------------------------------------------------
1 | 0:00.00 | 3:23.64 | 0 | 15288
2 | 3:23.64 | 5:04.39 | 15289 | 38127
3 | 8:28.28 | 5:47.64 | 38128 | 64216
4 | 14:16.17 | 4:52.70 | 64217 | 86186
5 | 19:09.12 | 2:25.51 | 86187 | 97112
6 | 21:34.63 | 3:42.34 | 97113 | 113796
7 | 25:17.22 | 5:10.00 | 113797 | 137046
8 | 30:27.22 | 4:03.31 | 137047 | 155302
9 | 34:30.53 | 4:25.25 | 155303 | 175202
10 | 38:56.03 | 2:56.69 | 175203 | 188471

Range status and errors

Selected range

Filename K:\Lossless Temp\Neil Young\29 - Neil Young - Living With War - 2006 (2006 Reprise Records, 9362-44335-2)\Neil Young - Living With War.wav

Peak level 97.6 %
Extraction speed 5.5 X
Range quality 100.0 %
Test CRC E75201F9
Copy CRC E75201F9
Copy OK

No errors occurred

AccurateRip summary

Track 1 accurately ripped (confidence 13) [82DE07F2] (AR v2)
Track 2 accurately ripped (confidence 13) [A5FED427] (AR v2)
Track 3 accurately ripped (confidence 13) [4C51DFF7] (AR v2)
Track 4 accurately ripped (confidence 13) [F32CA3B1] (AR v2)
Track 5 accurately ripped (confidence 13) [CE202FEB] (AR v2)
Track 6 accurately ripped (confidence 13) [B9151521] (AR v2)
Track 7 accurately ripped (confidence 13) [FD9DC6EF] (AR v2)
Track 8 accurately ripped (confidence 13) [9D5AB2F6] (AR v2)
Track 9 accurately ripped (confidence 13) [5330885A] (AR v2)
Track 10 accurately ripped (confidence 13) [430BA17F] (AR v2)

All tracks accurately ripped

End of status report

==== Log checksum 65F26AEC0918CD17682EDF4ADD73DFDAF5C03A378FA00926D55358F87EA2680D ====




Трекер:  [ 01-Янв-2013 11:18 ]

  

Скачать .torrent

Размер .torrent файла 191 KB


Размер: 18.46 GB
Хэш (hash) релиза: 77f739a505ecaa9dd997913892e6ee6ce4e71470

Еще никто не оставлял запись к записи скачать торрент Neil Young - Discography . Будь первым!

!Обратная связь